Loading...
Error

Скачать Чёрный пес / Black Dog (Кевин Хукс) [1998, боевик, триллер, драма, HDTVRip] [DVO] торрент без регистрации

 
Статистика раздачи
Размер:  745 MB   |    Скачан:  115 раз
Сидов:  1  [  0 KB/s  ]  
 
Автор Сообщение

Marsianka

[] 

Чёрный пес / Black Dog

«Есть только один способ выжить - не останавливаться.»
Страна: США, Германия, Франция, Япония, Великобритания
Жанр: Боевик, триллер, драма
Год выпуска: 1998
Продолжительность: 01:28:33
Перевод: Профессиональный (двухголосый закадровый)

Текст читали: Алексей Борзунов и Елена Борзунова
Cубтитры: нет
Оригинальная аудиодорожка: нет

Режиссер:
Кевин Хукс / Kevin Hooks

В ролях:
Патрик Суэйзи, Мит Лоаф, Рэнди Трэвис, Гэбриел Коссес, Брайан Винсент, Грэхэм Бекел, Бренда Стронг, Расти Де Уиз, Кирилл О`Рейли, Эрин Бродерик

Описание:
Водитель-дальнобойщик Джек Круз только что вышел из тюрьмы и сейчас находится под полицейским надзором. Однако, обстоятельства вынуждают его, ради благополучия жены и ребенка, согласиться на перевозку левого груза. Без лишних вопросов он отправляется в путь. Очень скоро становиться ясно насколько опасным будет этот рейс. Но, преследуемый бандитами и ФБР, Джек твердо намерен доставить груз по назначению.

Sample | КиноПоиск | IMdB

Качество видео: HDTVRip спасибо «-Bentley-»
Формат видео: AVI
Видео: 624x352 (16:9), 23.976 fps, XviD build 65 ~1039 kbps avg, 0.19 bit/pixel
Аудио: 48.0 kHz, MPEG Layer 3, 2 ch, ~128.00 kbps avg | (DVO)
Общее
Полное имя : A:\Фильмы\Black.Dog.1998.HDTVRip.XviD.745Mb.mp3.avi
Формат : AVI
Формат/Информация : Audio Video Interleave
Размер файла : 745 Мбайт
Продолжительность : 1 ч. 28 м.
Общий поток : 1176 Кбит/сек
Программа кодирования : VirtualDubMod 1.5.10.2 (build 2540/release)
Библиотека кодирования : VirtualDubMod build 2540/release
Видео
Идентификатор : 0
Формат : MPEG-4 Visual
Профиль формата : Advanced Simple@L5
Параметр BVOP формата : 1
Параметр QPel формата : Нет
Параметр GMC формата : Без точки перехода
Параметр матрицы формата : Выборочная
Идентификатор кодека : XVID
Идентификатор кодека/Подсказка : XviD
Продолжительность : 1 ч. 28 м.
Битрейт : 1039 Кбит/сек
Ширина : 624 пикселя
Высота : 352 пикселя
Соотношение сторон : 16:9
Частота кадров : 23,976 кадра/сек
Цветовое пространство : YUV
Субдискретизация насыщенности : 4:2:0
Битовая глубина : 8 бит
Тип развёртки : Прогрессивная
Метод сжатия : С потерями
Бит/(Пиксели*Кадры) : 0.197
Размер потока : 658 Мбайт (88%)
Библиотека кодирования : XviD 65
Аудио
Идентификатор : 1
Формат : MPEG Audio
Версия формата : Version 1
Профиль формата : Layer 3
Идентификатор кодека : 55
Идентификатор кодека/Подсказка : MP3
Продолжительность : 1 ч. 28 м.
Вид битрейта : Постоянный
Битрейт : 128 Кбит/сек
Каналы : 2 канала
Частота : 48,0 КГц
Метод сжатия : С потерями
Размер потока : 81,1 Мбайт (11%)
Выравнивание : Соединение по промежуткам
Продолжительность промежутка : 42 мс. (1,00 видеокадр)
Время предзагрузки промежутка : 504 мс.
Библиотека кодирования : LAME3.99r
Настройки программы : -m s -V 4 -q 2 -lowpass 17 -b 128



Скачать Чёрный.пес.Black.Dog.(Кевин.Хукс).[1998.боевик.триллер.драма.HDTVRip].[DVO].torrent без регистрации
Золото ЗОЛОТАЯ РАЗДАЧА! СКАЧАННОЕ НЕ ЗАСЧИТЫВАЕТСЯ! Золото
Дата: Зарегистрирован   [ Тип: внутренний ] Как тут cкачать?
MAGNET ссылка
MAGNET ссылка


Скачать .torrent

15 KB

Статус: проверено DHT
Скачан: торрент - 115 раз, раздача полностью - 8 раз
Размер: 745 MB
Оценка:  - (Голосов: 0)
Поблагодарили: 0
Поделиться ссылкой на эту раздачу с друзьями:
В контактеFacebookОдноклассникиTwitterLivejournalМой МирLiveinternet
 

 
Показать сообщения:    


Вы не можете начинать темы
Вы не можете отвечать на сообщения
Вы не можете редактировать свои сообщения
Вы не можете удалять свои сообщения
Вы не можете голосовать в опросах
Вы не можете прикреплять файлы к сообщениям
Вы можете скачивать файлы