Loading...
Error

Скачать Поворот судьбы / Искривленная вера / A Twist of Faith (Крис Эйнджел) [1999, триллер, драма, DVDRip] [DVO ("Пирамида" (2001))] торрент без регистрации

 
Статистика раздачи
Размер:  751 MB   |    Скачан:  106 раз
Сидов:  1  [  0 KB/s  ]  
 
Автор Сообщение

Marsianka

[] 

Поворот судьбы / Искривленная вера / A Twist of Faith
Страна: Канада
Жанр: триллер, драма
Год выпуска: 1999
Продолжительность: 01:34:11
Перевод: Профессиональный (двухголосый закадровый) "Пирамида" (2001)
Cубтитры: нет
Оригинальная аудиодорожка: нет
Режиссер: Крис Эйнджел / Chris Angel
В ролях: Эндрю МакКарти, Майкл Айронсайд, Джейн Хайтмейер, Сюзи Джоаким, Мэтью Лоранс, Лорен Диволд, Шон Дэй Майкл, Л. Харви Голд, Гай Фачон, Робин Уэбб, Бен Джонсон, Мики Монселл, Харрисон Коу, Филип Грэйнджер, Джуди Нортон, Джейн Соерби, Даниэлла Евангелиста, Крэйг Верони, Дуглас Эдмондс, Джули Хилл, Алетт Фалл
Описание: В городе совершается серия жутких убийств. Совершенно разные люди: священник, проститутка, известный спортсмен, детектив-полицейский, при жизни никак не связанные друг с другом, — стали жертвами религиозного маньяка-убийцы, возомнившего себя Антихристом, предотвращающим Второе Пришествие, бросившего вызов самому Богу своим изречением: «Если ты такой всемогущий — останови меня».Расследование поручено молодому детективу Генри Смиту. Сможет ли бесстрашный служитель закона и убежденный атеист выследить человека, заблудшего в вере, и распутать этот клубок непрекращающихся смертей, или же хладнокровный маньяк будет и дальше разгуливать на свободе, замышляя все новые и новые убийства?…



Качество видео: DVDRip
Формат видео: AVI
Видео: XviD build 50, 656x496 (4:3), 25.000 fps, 913 kbps avg
Аудио: Russian AC3 Dolby Digital, 48 kHz, 2/0 (L,R) ch, 192.00 kbps avg

Сэмпл
За оцифровку благодарю Fikaloid. Работа со звуком спасибо alex7691
Complete name : H:\Звук.дороги новые\A Twist of Faith_1999\A Twist of Faith_1999.DVDRip.avi
Format : AVI
Format/Info : Audio Video Interleave
File size : 751 MiB
Duration : 1h 34mn
Overall bit rate : 1 115 Kbps
Writing application : VirtualDubMod 1.5.10.3 (build 2550/release)
Writing library : VirtualDubMod build 2550/release
Video
ID : 0
Format : MPEG-4 Visual
Format profile : Advanced Simple@L5
Format settings, BVOP : 1
Format settings, QPel : No
Format settings, GMC : No warppoints
Format settings, Matrix : Custom
Codec ID : XVID
Codec ID/Hint : XviD
Duration : 1h 34mn
Bit rate : 913 Kbps
Width : 656 pixels
Height : 496 pixels
Display aspect ratio : 4:3
Frame rate : 25.000 fps
Color space : YUV
Chroma subsampling : 4:2:0
Bit depth : 8 bits
Scan type : Progressive
Compression mode : Lossy
Bits/(Pixel*Frame) : 0.112
Stream size : 615 MiB (82%)
Writing library : XviD 1.2.1 (UTC 2008-12-04)
Audio
ID : 1
Format : AC-3
Format/Info : Audio Coding 3
Mode extension : CM (complete main)
Format settings, Endianness : Big
Codec ID : 2000
Duration : 1h 34mn
Bit rate mode : Constant
Bit rate : 192 Kbps
Channel(s) : 2 channels
Channel positions : Front: L R
Sampling rate : 48.0 KHz
Bit depth : 16 bits
Compression mode : Lossy
Stream size : 129 MiB (17%)
Alignment : Split accross interleaves
Interleave, duration : 40 ms (1.00 video frame)
Interleave, preload duration : 500 ms



Скачать Поворот.судьбы.Искривленная.вера.A.Twist.of.Faith.(Крис.Эйнджел).[1999.триллер.драма.DVDRip].[DVO.("Пирамида".(2001))].torrent без регистрации
Золото ЗОЛОТАЯ РАЗДАЧА! СКАЧАННОЕ НЕ ЗАСЧИТЫВАЕТСЯ! Золото
Дата: Зарегистрирован   [ Тип: внутренний ] Как тут cкачать?
MAGNET ссылка
MAGNET ссылка


Скачать .torrent

15 KB

Статус: проверено DHT
Скачан: торрент - 106 раз, раздача полностью - 3 раз
Размер: 751 MB
Оценка:  - (Голосов: 0)
Поблагодарили: 0
Поделиться ссылкой на эту раздачу с друзьями:
В контактеFacebookОдноклассникиTwitterLivejournalМой МирLiveinternet
 

 
Показать сообщения:    


Вы не можете начинать темы
Вы не можете отвечать на сообщения
Вы не можете редактировать свои сообщения
Вы не можете удалять свои сообщения
Вы не можете голосовать в опросах
Вы не можете прикреплять файлы к сообщениям
Вы можете скачивать файлы