Loading...
Error

Скачать Чрезмерное насилие / Excessive force (Джон Хесс) [1993, боевик, DVDRip] [AVO (Павел Прямостанов)] + [Original (Eng)] торрент без регистрации

 
Статистика раздачи
Размер:  1,46 GB   |    Скачан:  103 раза

Полного источника не было: 22 минуты

 
Автор Сообщение

Marsianka

[] 

Чрезмерное насилие / Excessive force

Страна: США
Жанр: боевик
Год выпуска: 1993
Продолжительность: 01:26:52
Перевод: Авторский (одноголосый закадровый) Павел Прямостанов
Cубтитры: нет
Оригинальная аудиодорожка: английский
Режиссер: Джон Хесс / Jon Hess
В ролях: Шарлотта Льюис, Тони Тодд, Берт Янг, Энтони Короне, Лэнс Хенриксен, Джеймс Эрл Джонс, Тони Эппер, Томас Йен Гриффит, Том Ходжис, Дэнни Эппер
Описание: Офицер Терри и двое его напарников из спец отряда полиции пытаются поймать босса мафии Чикаго, ДиМарко. Несмотря на многочисленные попытки арестовать гангстера, ему всегда удается ускользнуть от полиции.
Офицеры организовывают операции по поимке ДиМарко во время сделки по продаже крупной партии наркотиков. Завязывается перестрелка, однако мафиози опять удается сбежать.
В ходе операции исчезают три миллиона долларов. ДиМарко хочет отомстить полицейским, которые, как он думает, и украли его деньги. Напарников Терри убивают одного за другим, и вскоре он понимает, что находится в опасности, особенно после того как узнает, что подозрения ДиМарко являются не такими уж и беспочвенными.



Автор: _int_
Качество видео: DVDRip
Формат видео: AVI
Видео: 720x384 (1.88:1), 23.976 fps, XviD build 46 ~2000 kbps avg, 0.30 bit/pixel

Аудио: 48 kHz, AC3 Dolby Digital, 2/0 (L,R) ch, ~192 kbps
Аудио 2: 48 kHz, AC3 Dolby Digital, 2/0 (L,R) ch, ~192 kbps
Общее
Полное имя : C:\Users\к\Desktop\фильмы\кино\Excessive Force (Pryamostanov, eng) (DVDrip)_1993_.avi
Формат : AVI
Формат/Информация : Audio Video Interleave
Размер файла : 1,46 Гбайт
Продолжительность : 1 ч. 26 м.
Общий поток : 2400 Кбит/сек
Название фильма : Excessive Force (1993)
Режиссёр : _int_
Программа кодирования : VirtualDubMod 1.5.10.2 (build 2542/release)
Библиотека кодирования : VirtualDubMod build 2542/release
Видео
Идентификатор : 0
Формат : MPEG-4 Visual
Профиль формата : Advanced Simple@L5
Параметр BVOP формата : Нет
Параметр QPel формата : Нет
Параметр GMC формата : Без точки перехода
Параметр матрицы формата : Выборочная
Идентификатор кодека : XVID
Идентификатор кодека/Подсказка : XviD
Продолжительность : 1 ч. 26 м.
Битрейт : 2001 Кбит/сек
Ширина : 720 пикселей
Высота : 384 пикселя
Соотношение сторон : 1,85:1
Частота кадров : 23,976 кадра/сек
Цветовое пространство : YUV
Субдискретизация насыщенности : 4:2:0
Битовая глубина : 8 бит
Тип развёртки : Прогрессивная
Метод сжатия : С потерями
Бит/(Пиксели*Кадры) : 0.302
Размер потока : 1,21 Гбайт (83%)
Библиотека кодирования : XviD 1.1.2 (UTC 2006-11-01)
Аудио #1
Идентификатор : 1
Формат : AC-3
Формат/Информация : Audio Coding 3
Расширение режима : CM (complete main)
Параметр Endianness формата : Big
Идентификатор кодека : 2000
Продолжительность : 1 ч. 26 м.
Вид битрейта : Постоянный
Битрейт : 192 Кбит/сек
Каналы : 2 канала
Расположение каналов : Front: L R
Частота : 48,0 КГц
Битовая глубина : 16 бит
Метод сжатия : С потерями
Размер потока : 119 Мбайт (8%)
Выравнивание : Разделение по промежуткам
Продолжительность промежутка : 42 мс. (1,00 видеокадр)
Время предзагрузки промежутка : 500 мс.
Аудио #2
Идентификатор : 2
Формат : AC-3
Формат/Информация : Audio Coding 3
Расширение режима : CM (complete main)
Параметр Endianness формата : Big
Идентификатор кодека : 2000
Продолжительность : 1 ч. 26 м.
Вид битрейта : Постоянный
Битрейт : 192 Кбит/сек
Каналы : 2 канала
Расположение каналов : Front: L R
Частота : 48,0 КГц
Битовая глубина : 16 бит
Метод сжатия : С потерями
Размер потока : 119 Мбайт (8%)
Выравнивание : Разделение по промежуткам
Продолжительность промежутка : 42 мс. (1,00 видеокадр)
Время предзагрузки промежутка : 500 мс.



Скачать Чрезмерное.насилие.Excessive.force.(Джон.Хесс).[1993.боевик.DVDRip].[AVO.(Павел.Прямостанов)].+.[Original.(Eng)].torrent без регистрации
Золото ЗОЛОТАЯ РАЗДАЧА! СКАЧАННОЕ НЕ ЗАСЧИТЫВАЕТСЯ! Золото
Дата: Зарегистрирован   [ Тип: внутренний ] Как тут cкачать?
MAGNET ссылка
MAGNET ссылка


Скачать .torrent

15 KB

Статус: проверено DHT
Скачан: торрент - 103 раз, раздача полностью - 2 раз
Размер: 1,46 GB
Оценка:  - (Голосов: 0)
Поблагодарили: 0
Поделиться ссылкой на эту раздачу с друзьями:
В контактеFacebookОдноклассникиTwitterLivejournalМой МирLiveinternet
 

 
Показать сообщения:    


Вы не можете начинать темы
Вы не можете отвечать на сообщения
Вы не можете редактировать свои сообщения
Вы не можете удалять свои сообщения
Вы не можете голосовать в опросах
Вы не можете прикреплять файлы к сообщениям
Вы можете скачивать файлы