Loading...
Error

/ The Poker House ( ) [2007, , HDRip] [VO ()] + [Original (Eng)] + [Subs (Rus, Eng)]

 
1,75 GB   |    :  107
1  [  0 KB/s  ]  
 

Marsianka

[] 

/ The Poker House

: 2007
: / Poker House, The
:
: 01:33:10
:
+
C: , (, .srt*)
:
/ Lori Petty
:
(Agnes), (1st John), (Bee), (Duval), (Cammie), (Sheila), (Earl), (Burl), (Clyde Junior), (Sheila's Mom), (Sarah)
:
, .

IMDB | | |
: HDRip [The.Poker.House.2008.1080p.BluRay.x264-MELiTE]
: AVI
: 704x400 (1.76:1), 23.976 fps, XviD build 73 ~1783 kbps avg, 0.26 bit/pixel
#1: 48 kHz, AC3 Dolby Digital, 3/2 (L,C,R,l,r) + LFE ch, ~448.00 kbps avg (RUS)
(1.46)
# 2: 48 kHz, AC3 Dolby Digital, 3/2 (L,C,R,l,r) + LFE ch, ~448.00 kbps avg (ENG)

:

General
Complete name : D:\Dom_pokera_2007_HDRip_VO_by_Dalemake.avi
Format : AVI
Format/Info : Audio Video Interleave
File size : 1.46 GiB
Duration : 1h 33mn
Overall bit rate : 2 241 Kbps
Writing application : VirtualDubMod 1.5.10.3 | www.virtualdub-fr.org || (build 2550/release)
Writing library : VirtualDubMod build 2550/release
Video
ID : 0
Format : MPEG-4 Visual
Format profile : Advanced Simple@L5
Format settings, BVOP : 1
Format settings, QPel : No
Format settings, GMC : No warppoints
Format settings, Matrix : Custom
Codec ID : XVID
Codec ID/Hint : XviD
Duration : 1h 33mn
Bit rate : 1 783 Kbps
Width : 704 pixels
Height : 400 pixels
Display aspect ratio : 16:9
Frame rate : 23.976 fps
Color space : YUV
Chroma subsampling : 4:2:0
Bit depth : 8 bits
Scan type : Progressive
Compression mode : Lossy
Bits/(Pixel*Frame) : 0.264
Stream size : 1.16 GiB (80%)
Writing library : XviD 73
Audio
ID : 1
Format : AC-3
Format/Info : Audio Coding 3
Mode extension : CM (complete main)
Format settings, Endianness : Big
Codec ID : 2000
Duration : 1h 33mn
Bit rate mode : Constant
Bit rate : 448 Kbps
Channel(s) : 6 channels
Channel positions : Front: L C R, Side: L R, LFE
Sampling rate : 48.0 KHz
Bit depth : 16 bits
Compression mode : Lossy
Stream size : 299 MiB (20%)
Alignment : Split accross interleaves
Interleave, duration : 42 ms (1.00 video frame)
Interleave, preload duration : 500 ms

http://screenshotcomparison.com/comparison/50825
+:Format settings, BVOP : No
Format settings, QPel : No
Format settings, GMC : No warppoints
Format settings, Matrix : Default (H.263)



..The.Poker.House.(.).[2007..HDRip].[VO.()].+.[Original.(Eng)].+.[Subs.(Rus.Eng)].torrent
  ! ! 
:   [ : ] c?
MAGNET
MAGNET


.torrent

18 KB

: DHT
: - 107 , - 0
: 1,75 GB
- (: 0)
: 0
:
 FacebookTwitterLivejournal Liveinternet
 

 
: