Loading...
Error

Скачать Интервенция / Intervention (Мэри МакГакиан) [2007, драма, DVDRip-AVC] [Sub (Rus)]+[Оригинал] торрент без регистрации

 
Статистика раздачи
Размер:  1,14 GB   |    Скачан:  107 раз
Сидов:  1  [  0 KB/s  ]  
 
Автор Сообщение

Marsianka

[] 

Интервенция / Intervention
Страна: Великобритания
Жанр: Драма
Год выпуска: 2007
Продолжительность: 01:30:45
Перевод: cубтитры n_a_u
Cубтитры: русские
Оригинальная аудиодорожка: английский
Режиссер: Мэри МакГакиан / Mary McGuckian
В ролях: Руперт Грейвз, Дженнифер Тилли, Донна Д’Эррико, Джон Сессионс, Керри Фокс, Сара Стокбридж, Иэн Харт, Колм Фиор, Энди МакДауэлл, Чарльз Дэнс, Гэри Фармер, Рассел Минс, Билл Патерсон
Описание: Термином интервенция в психологии называют метод, при котором люди, входящие в ближайшее окружение зависимого человека, пытаются открыть ему глаза на проблему. Интервенция - это вмешательство по специальной методике убеждения с целью оказания эффективной помощи. Цель убеждения- разрушить психологические защитные барьеры так, чтобы реальность пробилась сквозь них. Показать человеку конкретные факты его поведения и их последствия.
События этого фильма разворачиваются в реабилитационном центре Виста-Клара, штат Нью-Мексика, США.
В центре - история Марка Берри, англичанина после интервенции, которого убедили пройти лечение по программе 12 шагов.
Марк плохо идет на контакт с психологами, не раскрывается на групповых занятиях, но затем наступает неделя семейной программы, во время которой пациенты должны разрешить конфликты со своими родными и близкими, и ситуация кардинально меняется. В присутствии своей жены Джейн Марк постоянно выходит из себя, каждый их разговор заканчивается скандалом. Помимо всего прочего, Марк тайно приглашает на семейную программу свою любовницу Памелу, что добавляет ситуации еще больше напряжения. Неоднозначность чувств Марка по отношению к обеим женщинам, причины его ужасных поступков, все становится кристально ясным к концу фильма, когда ценой больших усилий Марк все же вскрывает этот многолетний нарыв.
На фоне основной истории зритель узнает подробности об остальных пациентах клиники.
Алкоголика Джо, который много и красочно говорит о своей проблеме, но никак не может ее решить. Агрессивной истерички Сары, которая легко заводится по любому поводу. Гарри, который очень интересуется психологией и пытается применить знания из психологических книг на других пациентах.
Особняком стоят отношения четы психологов. Билл и Келли помогают другим людям справиться с психологическими проблемами, но насколько легко применять профессиональные знания на собственных отношениях? Они проецируют себя на пациентов и наоборот, обсуждая рабочие моменты скатываются в личное. Кажется, уж они-то должны были без труда разобраться с любой проблемой в своей семье. Но так ли это?
Это фильм о любви. О болезненной, рвущей душу на части любви. И о человеческом несовершенстве. Не каждому повезло взаимно полюбить кроткую добрую принцессу или отважного честного рыцаря. Любить идеального человека легко. Но не отступить, не закрыть глаза, а пытаться помочь любимому человеку справиться с зависимостью и не потерять свои чувства в процессе гораздо сложнее.
Доп. информация: В начале и конце фильма во время титров сюжетная линия продолжается. Не выключайте раньше времени.



Качество видео: DVDRip-AVC
Формат видео: MKV
Видео: H264, 720x368@852x368, 213:92, 23.97 fps, 1600 kbps

Сэмпл
Аудио: AC3, 48 kHz, 192 kbps, 2/0 (L,R) ch, Original (eng)
Формат субтитров: softsub (SRT)
General
Unique ID : 176885186023810872063225004635672532886 (0x8512D8FF788C207AA5D61ED76AAFD796)
Complete name : D:\Intervention.2007.sub.rus.mkv
Format : Matroska
Format version : Version 1
File size : 1.14 GiB
Duration : 1h 30mn
Overall bit rate : 1 794 Kbps
Encoded date : UTC 2013-12-02 01:54:32
Writing application : mkvmerge v2.6.0 ('Kelly watch the Stars') built on Mar 24 2009 15:23:17
Writing library : libebml v0.7.7 + libmatroska v0.8.1
Video
ID : 1
Format : AVC
Format/Info : Advanced Video Codec
Format profile : High@L3.0
Format settings, CABAC : Yes
Format settings, ReFrames : 7 frames
Codec ID : V_MPEG4/ISO/AVC
Duration : 1h 30mn
Bit rate : 1 600 Kbps
Width : 720 pixels
Height : 368 pixels
Display aspect ratio : 2.35:1
Original display aspect ratio : 1.957
Frame rate mode : Constant
Frame rate : 23.976 fps
Color space : YUV
Chroma subsampling : 4:2:0
Bit depth : 8 bits
Scan type : Progressive
Bits/(Pixel*Frame) : 0.252
Stream size : 1 017 MiB (87%)
Writing library : x264 core 130 r2273 b3065e6
Encoding settings : cabac=1 / ref=7 / deblock=1:0:0 / analyse=0x3:0x113 / me=umh / subme=9 / psy=1 / psy_rd=1.00:0.00 / mixed_ref=1 / me_range=24 / chroma_me=1 / trellis=1 / 8x8dct=1 / cqm=0 / deadzone=21,11 / fast_pskip=1 / chroma_qp_offset=-2 / threads=3 / lookahead_threads=1 / sliced_threads=0 / nr=0 / decimate=1 / interlaced=0 / bluray_compat=0 / constrained_intra=0 / bframes=3 / b_pyramid=2 / b_adapt=1 / b_bias=0 / direct=1 / weightb=1 / open_gop=0 / weightp=2 / keyint=240 / keyint_min=23 / scenecut=40 / intra_refresh=0 / rc_lookahead=40 / rc=2pass / mbtree=1 / bitrate=1600 / ratetol=1.0 / qcomp=0.60 / qpmin=0 / qpmax=69 / qpstep=4 / cplxblur=20.0 / qblur=0.5 / ip_ratio=1.40 / aq=1:1.00
Language : English
Default : Yes
Forced : No
Audio
ID : 2
Format : AC-3
Format/Info : Audio Coding 3
Mode extension : CM (complete main)
Format settings, Endianness : Big
Codec ID : A_AC3
Duration : 1h 30mn
Bit rate mode : Constant
Bit rate : 192 Kbps
Channel(s) : 2 channels
Channel positions : Front: L R
Sampling rate : 48.0 KHz
Bit depth : 16 bits
Compression mode : Lossy
Stream size : 125 MiB (11%)
Title : Original
Language : English
Default : Yes
Forced : No
Text
ID : 3
Format : UTF-8
Codec ID : S_TEXT/UTF8
Codec ID/Info : UTF-8 Plain Text
Title : n_a_u
Language : Russian
Default : Yes
Forced : No
83
00:05:06,181 --> 00:05:09,969
Что мы делаем сейчас, Марк,
принято называть интервенцией.
84
00:05:10,300 --> 00:05:13,822
Это процесс, в котором люди,
которые по-настоящему любят вас,
85
00:05:13,857 --> 00:05:15,359
имеют возможность это
продемонстрировать.
86
00:05:15,394 --> 00:05:18,583
Прошу прощения, если ты
чувствуешь себя обманутым.
87
00:05:18,618 --> 00:05:20,471
Мы знаем друг друга
достаточно долго,
88
00:05:20,506 --> 00:05:23,727
и могу сказать, что это не
первый раз, когда мы пытаемся
89
00:05:23,762 --> 00:05:27,253
удержать тебя от чего-то
принципиально очень разрушительного.
90
00:05:27,288 --> 00:05:29,682
Потому что нам кажется,
что вам очень больно.
91
00:05:29,717 --> 00:05:33,155
Вы измотаны стрессом,
немного запутались,
92
00:05:33,190 --> 00:05:34,773
и я знаю, что у вас
проблемы с наркотиками.
93
00:05:34,808 --> 00:05:37,192
Сердитый и уязвимый.
Больной и несчастный.
94
00:05:38,083 --> 00:05:40,709
Эти сигналы, которые вы посылаете.
Это то, что мы чувствуем.
95
00:05:42,893 --> 00:05:46,500
То, что мы делаем в Виста Клара...
Красивое место в 10 минутах от Санта-Фе.
96
00:05:46,501 --> 00:05:48,121
Серьезная программа из 12 шагов.
97
00:05:48,156 --> 00:05:51,572
Идея в том, что улучшение
возможно. Вы даете нам 28 дней.
98
00:05:51,607 --> 00:05:54,098
В конце которой
семейная программа.
99
00:05:54,099 --> 00:05:56,180
Марк, вы должны дать
нам шанс помочь вам.
100
00:05:56,215 --> 00:05:57,496
Помочь вам измениться.
101
00:05:57,600 --> 00:05:59,868
...помочь вам. Вы должны
дать нам эту возможность.
102
00:06:02,588 --> 00:06:04,446
Вы знаете, Марк,
все уже готово.
103
00:06:04,481 --> 00:06:07,433
Сейчас подходящее время, чтобы
прийти через все это. Начать лечение.
104
00:06:08,660 --> 00:06:10,852
И я хочу, чтобы вы поняли
кое-то очень простое.
105
00:06:10,887 --> 00:06:12,477
Я здесь не для Джейн,
я здесь для вас.
106
00:06:12,512 --> 00:06:16,062
Любовь Джейн к вам
сделала это возможным.
107
00:06:18,570 --> 00:06:20,670
Так будет лучше для нас обоих.



Скачать Интервенция.Intervention.(Мэри.МакГакиан).[2007.драма.DVDRip-AVC].[Sub.(Rus)]+[Оригинал].torrent без регистрации
Золото ЗОЛОТАЯ РАЗДАЧА! СКАЧАННОЕ НЕ ЗАСЧИТЫВАЕТСЯ! Золото
Дата: Зарегистрирован   [ Тип: внутренний ] Как тут cкачать?
MAGNET ссылка
MAGNET ссылка


Скачать .torrent

12 KB

Статус: проверено DHT
Скачан: торрент - 107 раз, раздача полностью - 0 раз
Размер: 1,14 GB
Оценка:  - (Голосов: 0)
Поблагодарили: 1
Поделиться ссылкой на эту раздачу с друзьями:
В контактеFacebookОдноклассникиTwitterLivejournalМой МирLiveinternet
 

 
Показать сообщения:    


Вы не можете начинать темы
Вы не можете отвечать на сообщения
Вы не можете редактировать свои сообщения
Вы не можете удалять свои сообщения
Вы не можете голосовать в опросах
Вы не можете прикреплять файлы к сообщениям
Вы можете скачивать файлы