Loading...
Error

Скачать Рокет Сингх: Продавец года / Rocket Singh: Salesman of the year (Шимит Амин) [2009, комедия, драма, HDRip] [AVO (Ю.Сербин)] торрент без регистрации

 
Статистика раздачи
Размер:  1,46 GB   |    Скачан:  103 раза
Сидов:  1  [  0 KB/s  ]  
 
Автор Сообщение

Marsianka

[] 

Рокет Сингх: Продавец года / Rocket Singh: Salesman of the year
Страна: Индия
Жанр: комедия, драма
Год выпуска: 2009
Продолжительность: 02:34:12
Перевод: Авторский (одноголосый закадровый) Ю.Сербин
Cубтитры: нет
Оригинальная аудиодорожка: нет
Режиссер: Шимит Амин / Shimit Amin
В ролях: Ранбир Капур, Шазан Падмаси, Гаухар Кхан, Прем Чопра, Шарон Прабхакар, Д. Сантош
Описание: История жизни Харприта Сингх Беди, который, набрав всего 38 баллов, закончил колледж со степенью бакалавра коммерции. Дед Харприта надеется, что внук всё же найдёт приличную работу. Хаприта берут с испытательным сроком 6 месяцев на непрестижную должность продавца с окладом 15 тыс. рупий в одну компьютерную компанию.



Качество видео: HDRip
Формат видео: AVI
Видео: 720x304 (2.35:1), 24.000 fps, XviD MPEG-4 ~1151 kbps avg, 0.219 bit/pixel
Аудио: 48 kHz, AC3 Dolby Digital, 2/0 (L,R) ch, ~192 kbps

Сэмпл
General
Complete name : C:\Users\Алекс\Desktop\Rocket.Singh.Salesman.of.the year.2009.HDRip.avi
Format : AVI
Format/Info : Audio Video Interleave
File size : 1.46 GiB
Duration : 2h 34mn
Overall bit rate : 1 353 Kbps
Movie name : Rocket.Singh.Salesman.of.the year.2009.HDRip
Director
Writing application : VirtualDubModRus 1.5.10.2 (build 2542/release)
Video
ID : 0
Format : MPEG-4 Visual
Format profile : Advanced Simple@L5
Format settings, BVOP : 1
Format settings, QPel : No
Format settings, GMC : No warppoints
Format settings, Matrix : Custom
Codec ID : XVID
Codec ID/Hint : XviD
Duration : 2h 34mn
Bit rate : 1 151 Kbps
Width : 720 pixels
Height : 304 pixels
Display aspect ratio : 2.35:1
Frame rate : 24.000 fps
Color space : YUV
Chroma subsampling : 4:2:0
Bit depth : 8 bits
Scan type : Progressive
Compression mode : Lossy
Bits/(Pixel*Frame) : 0.219
Stream size : 1.24 GiB (85%)
Writing library : XviD 65
Audio
ID : 1
Format : AC-3
Format/Info : Audio Coding 3
Mode extension : CM (complete main)
Format settings, Endianness : Big
Codec ID : 2000
Duration : 2h 34mn
Bit rate mode : Constant
Bit rate : 192 Kbps
Channel(s) : 2 channels
Channel positions : Front: L R
Sampling rate : 48.0 KHz
Bit depth : 16 bits
Compression mode : Lossy
Stream size : 212 MiB (14%)
Alignment : Split accross interleaves
Interleave, duration : 42 ms (1.00 video frame)
Interleave, preload duration : 500 ms
Title : Авторский (одноголосый, закадровый) Ю,Сербин



Скачать Рокет.Сингх.Продавец.года.Rocket.Singh.Salesman.of.the.year.(Шимит.Амин).[2009.комедия.драма.HDRip].[AVO.(Ю.Сербин)].torrent без регистрации
Золото ЗОЛОТАЯ РАЗДАЧА! СКАЧАННОЕ НЕ ЗАСЧИТЫВАЕТСЯ! Золото
Дата: Зарегистрирован   [ Тип: внутренний ] Как тут cкачать?
MAGNET ссылка
MAGNET ссылка


Скачать .torrent

15 KB

Статус: проверено DHT
Скачан: торрент - 103 раз, раздача полностью - 1 раз
Размер: 1,46 GB
Оценка:  - (Голосов: 0)
Поблагодарили: 0
Поделиться ссылкой на эту раздачу с друзьями:
В контактеFacebookОдноклассникиTwitterLivejournalМой МирLiveinternet
 

 
Показать сообщения:    


Вы не можете начинать темы
Вы не можете отвечать на сообщения
Вы не можете редактировать свои сообщения
Вы не можете удалять свои сообщения
Вы не можете голосовать в опросах
Вы не можете прикреплять файлы к сообщениям
Вы можете скачивать файлы