Loading...
Error

Скачать Патрульный / Linewatch (Кевин Брэй) [2008, криминал, драма, триллер, HDTVRip] [MVO (1 канал)] торрент без регистрации

 
Статистика раздачи
Размер:  1,42 GB   |    Скачан:  110 раз
Сидов:  1  [  0 KB/s  ]  
 
Автор Сообщение

Marsianka

[] 

Патрульный / Linewatch
Страна: США
Студия: Linewatch Productions, Motion Picture Corporation of America (MPCA), Stage 6 Films
Жанр: криминал, драма, триллер
Год выпуска: 2008
Продолжительность: 01:23:33
Перевод: Профессиональный (многоголосый закадровый) 1 канал
Cубтитры: нет
Оригинальная аудиодорожка: нет
Режиссер: Кевин Брэй / Kevin Bray
В ролях: Кьюба Гудинг мл., Омари Хардвик, Шарон Лил, Ивэн Росс, Дин Норрис, Крис Браунинг, Омар Пас Тружильо, Джош Коффман и др.
Описание: Майкл Диксон — уважаемый агент патрульной службы на границе США-Мексика и заботливый семьянин. Но в недавнем прошлом он был по другую сторону Закона и являлся членом бандитской группировки в Лос-Анджелесе. Казалось, его жизнь наладилась. Но, как известно, из банды просто так не уходят...



Качество видео: HDTVRip
Формат видео: AVI
Видео: 720x304 (2.35:1)) 25.0fps Bit rate 2199Kbps b/p 0.402
Аудио: AC32 48.0 KHz 2ch. 224kbps

Общее
Полное имя : E:\torrent\Patrulnyi_HDTVRip_1.kanal.avi
Формат : AVI
Формат/Информация : Audio Video Interleave
Размер файла : 1,42 Гбайт
Продолжительность : 1 ч. 23 м.
Общий поток : 2432 Кбит/сек
Библиотека кодирования : VirtualDub build 32842/release
Видео
Идентификатор : 0
Формат : MPEG-4 Visual
Профиль формата : Advanced Simple@L5
Параметр BVOP формата : 2
Параметр QPel формата : Нет
Параметр GMC формата : Без точки перехода
Параметр матрицы формата : Default (H.263)
Идентификатор кодека : XVID
Идентификатор кодека/Подсказка : XviD
Продолжительность : 1 ч. 23 м.
Битрейт : 2199 Кбит/сек
Ширина : 720 пикселей
Высота : 304 пикселя
Соотношение сторон : 2,35:1
Частота кадров : 25,000 кадров/сек
Цветовое пространство : YUV
Субдискретизация насыщенности : 4:2:0
Битовая глубина : 8 бит
Тип развёртки : Прогрессивная
Метод сжатия : С потерями
Бит/(Пиксели*Кадры) : 0.402
Размер потока : 1,28 Гбайт (90%)
Библиотека кодирования : XviD 1.2.1 (UTC 2008-12-04)
Аудио
Идентификатор : 1
Формат : AC-3
Формат/Информация : Audio Coding 3
Расширение режима : CM (complete main)
Параметр Endianness формата : Big
Идентификатор кодека : 2000
Продолжительность : 1 ч. 23 м.
Вид битрейта : Постоянный
Битрейт : 224 Кбит/сек
Каналы : 2 канала
Расположение каналов : Front: L R
Частота : 48,0 КГц
Битовая глубина : 16 бит
Метод сжатия : С потерями
Размер потока : 134 Мбайт (9%)
Выравнивание : Соединение по промежуткам
Продолжительность промежутка : 40 мс. (1,00 видеокадр)
Время предзагрузки промежутка : 512 мс.



Скачать Патрульный.Linewatch.(Кевин.Брэй).[2008.криминал.драма.триллер.HDTVRip].[MVO.(1.канал)].torrent без регистрации
Золото ЗОЛОТАЯ РАЗДАЧА! СКАЧАННОЕ НЕ ЗАСЧИТЫВАЕТСЯ! Золото
Дата: Зарегистрирован   [ Тип: внутренний ] Как тут cкачать?
MAGNET ссылка
MAGNET ссылка


Скачать .torrent

15 KB

Статус: проверено DHT
Скачан: торрент - 110 раз, раздача полностью - 4 раз
Размер: 1,42 GB
Оценка:  - (Голосов: 0)
Поблагодарили: 0
Поделиться ссылкой на эту раздачу с друзьями:
В контактеFacebookОдноклассникиTwitterLivejournalМой МирLiveinternet
 

 
Показать сообщения:    


Вы не можете начинать темы
Вы не можете отвечать на сообщения
Вы не можете редактировать свои сообщения
Вы не можете удалять свои сообщения
Вы не можете голосовать в опросах
Вы не можете прикреплять файлы к сообщениям
Вы можете скачивать файлы