Loading...
Error

Скачать Братство / Brothers: The Return (Эрик Лейжонборг) [2006, триллер, драма, криминал, DVDRip] [AVO (Сергей Кузнецов)] торрент без регистрации

 
Статистика раздачи
Размер:  1,49 GB   |    Скачан:  106 раз
Сидов:  1  [  0 KB/s  ]  
 
Автор Сообщение

Marsianka

[] 

Братство / Brothers: The Return
Оригинальное название: Tusenbröder - Återkomsten
Страна: Швеция
Жанр: триллер, драма, криминал
Год выпуска: 2006
Продолжительность: 01:31:48
Перевод: Авторский (одноголосый закадровый) Сергей Кузнецов
Cубтитры: нет
Режиссер: Эрик Лейжонборг / Erik Leijonborg
В ролях: Ола Рапас / Ola Rapace, Лина-Рин Олмару / Liina-Riin Olmaru, Маргус Прангель / Margus Prangel, Биссе Унгер / Bisse Unger, Аня Лундквист / Anja Lundkvist, Якоб Эрикссон / Jacob Ericksson, Магнус Креппер / Magnus Krepper, Марика Линдстрём / Marika Lindström, Пер Мэттссон / Per Mattsson, Марко Матвере / Marko Matvere, Аллан Свенссон / Allan Svensson, Якоб Эклунд / Jakob Eklund, Катарина Эверлоф / Katarina Ewerlöf.
Описание: Бывший грабитель банков, контрабандист и беглый преступник, после взрыва своего судна у берегов Эстонии, пытается наладить новую жизнь, но тоска по своей семье заставляет его вернуться в Швецию. Но семья уже переехала на новое место жительства. К тому же, жена и дети считают его мертвым, и увидеть больше не надеются. Его прошлое еще больше усложняет и делает опасным и так трудное путешествие домой.
А в это время семья, не особенно хорошо обеспеченная материально, борется со своими трудностями и бедами, одна из которых — это болезнь маленького Макса, требующая пересадки почки. У матери мальчика появляется друг, который согласен быть донором для ее сына…
Основные опасности и приключения выпадают на долю отца мальчика. Сам Макс, которого играет Биссе Унгер, ни в стрельбах, ни в драках не участвует, но фигура очень важная для завязки и развязки.





Качество видео: DVDRip
Формат видео: AVI
Видео: 720x384 (1.88:1), 25 fps, XviD build 64 ~1667 kbps avg, 0.24 bit/pixel



Аудио 1: 48 kHz, AC3 Dolby Digital, 2/0 (L,R) ch, ~192 kbps
Аудио 2: 48 kHz, AC3 Dolby Digital, 3/2 (L,C,R,l,r) + LFE ch, ~448 kbps
K:\Rozdacha\Tusenbrоder.avi
General
Complete name : K:\Rozdacha\Tusenbrоder.avi
Format : AVI
Format/Info : Audio Video Interleave
File size : 1.49 GiB
Duration : 1h 31mn
Overall bit rate : 2 316 Kbps
Writing application : VirtualDubMod 1.5.4.1 (build 2178/release)
Writing library : VirtualDubMod build 2178/release
Video #0
ID : 0
Format : MPEG-4 Visual
Format profile : AdvancedSimple@L5
Format settings, BVOP : Yes
Format settings, QPel : No
Format settings, GMC : No warppoints
Format settings, Matrix : Custom
Codec ID : XVID
Codec ID/Hint : XviD
Duration : 1h 31mn
Bit rate : 1 667 Kbps
Width : 720 pixels
Height : 384 pixels
Display aspect ratio : 1.875
Frame rate : 25.000 fps
Resolution : 24 bits
Colorimetry : 4:2:0
Scan type : Progressive
Bits/(Pixel*Frame) : 0.241
Stream size : 1.07 GiB (72%)
Writing library : XviD 64
Audio #1
ID : 1
Format : AC-3
Format/Info : Audio Coding 3
Codec ID : 2000
Duration : 1h 31mn
Bit rate mode : Constant
Bit rate : 192 Kbps
Channel(s) : 2 channels
Channel positions : L R
Sampling rate : 48.0 KHz
Stream size : 126 MiB (8%)
Alignment : Split accross interleaves
Interleave, duration : 96 ms (2.40 video frames)
Interleave, preload duration : 96 ms
Language : Russian
Audio #2
ID : 2
Format : AC-3
Format/Info : Audio Coding 3
Codec ID : 2000
Duration : 1h 31mn
Bit rate mode : Constant
Bit rate : 448 Kbps
Channel(s) : 6 channels
Channel positions : Front: L C R, Surround: L R, LFE
Sampling rate : 48.0 KHz
Stream size : 294 MiB (19%)
Alignment : Split accross interleaves
Interleave, duration : 96 ms (2.40 video frames)
Interleave, preload duration : 96 ms
Language : Swedish



Скачать Братство.Brothers.The.Return.(Эрик.Лейжонборг).[2006.триллер.драма.криминал.DVDRip].[AVO.(Сергей.Кузнецов)].torrent без регистрации
Золото ЗОЛОТАЯ РАЗДАЧА! СКАЧАННОЕ НЕ ЗАСЧИТЫВАЕТСЯ! Золото
Дата: Зарегистрирован   [ Тип: внутренний ] Как тут cкачать?
MAGNET ссылка
MAGNET ссылка


Скачать .torrent

15 KB

Статус: проверено DHT
Скачан: торрент - 106 раз, раздача полностью - 1 раз
Размер: 1,49 GB
Оценка:  4 (Голосов: 1)
Поблагодарили: 2
Поделиться ссылкой на эту раздачу с друзьями:
В контактеFacebookОдноклассникиTwitterLivejournalМой МирLiveinternet
 

 
Показать сообщения:    


Вы не можете начинать темы
Вы не можете отвечать на сообщения
Вы не можете редактировать свои сообщения
Вы не можете удалять свои сообщения
Вы не можете голосовать в опросах
Вы не можете прикреплять файлы к сообщениям
Вы можете скачивать файлы