Loading...
Error

Скачать Девять / Nine (Роб Маршалл) [2009, мюзикл, драма, мелодрама, BDRip] [MVO] + [Sub (Rus)] + [Original (Eng)] торрент без регистрации

 
Статистика раздачи
Размер:  2,18 GB   |    Скачан:  102 раза

Полного источника не было: 21 минута

 
Автор Сообщение

Marsianka

[] 

Девять
Nine

«Эффектные, роскошные и сексуальные!»

Страна: США, Италия
Жанр: мюзикл, драма, мелодрама
Год выпуска: 2009
Продолжительность: 01:58:40

Перевод: Профессиональный (многоголосый, закадровый)
Cубтитры: Русские
Оригинальная аудиодорожка: английский


Режиссер:
Роб Маршалл / Rob Marshall
В ролях:
Дэниэл Дэй-Льюис (Guido Contini), Николь Кидман (Claudia),Марион Котийяр (Luisa Contini), Пенелопа Крус (Carla), Кейт Хадсон(Stephanie), Джуди Денч (Lilli), Ферги Дюамель (Saraghina), Сандро Дори (Studio Superintendent),Рикки Тоньяцци (Dante), Джузеппе Чедерна (Fausto), Элио Джермано (Pierpaolo)

Описание:
Красть поцелуи, быть итальянцем, брать жизнь горстями - вот кредо Гвидо Контини, известного режиссера. Всю жизнь его окружают шикарные женщины - жена, любовницы, муза, агент. Он востребован. Он идет к цели по трупам. Но почему же он не может завершить съемки своего нового фильма? Он ищет разгадку там, где ему всего привычнее - в постели у женщин, но душа его опустошается все больше и больше. Что станет ключом от вожделенного рая творчества, кто вернет звуки музыки, которая давно звучит в его сердце?




Качество видео:
Формат видео: AVI
Видео: 688x288 (2.39:1), 23.976 fps, XviD MPEG-4 ~1728 kbps avg, 0.36 bit/pixel
Аудио 1: 48 kHz, AC3 Dolby Digital, 3/2 (L,C,R,l,r) + LFE ch, ~448 kbps Russian[/font]
Аудио 2: 48 kHz, AC3 Dolby Digital, 3/2 (L,C,R,l,r) + LFE ch, ~448 kbps English
[align=center]
Общее
Полное имя : F:\Рипы\Devyat.2009.BDRip\Devyat.2009.BDRip.avi
Формат : AVI
Формат/Информация : Audio Video Interleave
Профиль формата : OpenDML
Размер файла : 2,18 Гбайт
Продолжительность : 1 ч. 58 м.
Общий поток : 2631 Кбит/сек
Программа кодирования : VirtualDubModRus 1.5.10.2 (build 2542/release)
Библиотека кодирования : VirtualDubMod build 2542/release
Видео
Идентификатор : 0
Формат : MPEG-4 Visual
Профиль формата : Advanced Simple@L5
Параметр BVOP формата : 1
Параметр QPel формата : Нет
Параметр GMC формата : Без точки перехода
Параметр матрицы формата : Выборочная
Идентификатор кодека : XVID
Идентификатор кодека/Подсказка : XviD
Продолжительность : 1 ч. 58 м.
Битрейт : 1717 Кбит/сек
Ширина : 688 пикселей
Высота : 288 пикселей
Соотношение сторон : 2,40:1
Частота кадров : 23,976 кадра/сек
Цветовое пространство : YUV
Субдискретизация насыщенности : 4:2:0
Битовая глубина : 8 бит
Тип развёртки : Прогрессивная
Метод сжатия : С потерями
Бит/(Пиксели*Кадры) : 0.361
Размер потока : 1,42 Гбайт (65%)
Библиотека кодирования : XviD 73
Аудио #1
Идентификатор : 1
Формат : AC-3
Формат/Информация : Audio Coding 3
Расширение режима : CM (complete main)
Параметр Endianness формата : Big
Идентификатор кодека : 2000
Продолжительность : 1 ч. 58 м.
Вид битрейта : Постоянный
Битрейт : 448 Кбит/сек
Каналы : 6 каналов
Расположение каналов : Front: L C R, Side: L R, LFE
Частота : 48,0 КГц
Битовая глубина : 16 бит
Метод сжатия : С потерями
Размер потока : 380 Мбайт (17%)
Выравнивание : Разделение по промежуткам
Продолжительность промежутка : 42 мс. (1,00 видеокадр)
Время предзагрузки промежутка : 500 мс.
Аудио #2
Идентификатор : 2
Формат : AC-3
Формат/Информация : Audio Coding 3
Расширение режима : CM (complete main)
Параметр Endianness формата : Big
Идентификатор кодека : 2000
Продолжительность : 1 ч. 58 м.
Вид битрейта : Постоянный
Битрейт : 448 Кбит/сек
Каналы : 6 каналов
Расположение каналов : Front: L C R, Side: L R, LFE
Частота : 48,0 КГц
Битовая глубина : 16 бит
Метод сжатия : С потерями
Размер потока : 380 Мбайт (17%)
Выравнивание : Разделение по промежуткам
Продолжительность промежутка : 42 мс. (1,00 видеокадр)
Время предзагрузки промежутка : 500 мс.



Скачать Девять.Nine.(Роб.Маршалл).[2009.мюзикл.драма.мелодрама.BDRip].[MVO].+.[Sub.(Rus)].+.[Original.(Eng)].torrent без регистрации
Золото ЗОЛОТАЯ РАЗДАЧА! СКАЧАННОЕ НЕ ЗАСЧИТЫВАЕТСЯ! Золото
Дата: Зарегистрирован   [ Тип: внутренний ] Как тут cкачать?
MAGNET ссылка
MAGNET ссылка


Скачать .torrent

12 KB

Статус: проверено DHT
Скачан: торрент - 102 раз, раздача полностью - 5 раз
Размер: 2,18 GB
Оценка:  - (Голосов: 0)
Поблагодарили: 0
Поделиться ссылкой на эту раздачу с друзьями:
В контактеFacebookОдноклассникиTwitterLivejournalМой МирLiveinternet
 

 
Показать сообщения:    


Вы не можете начинать темы
Вы не можете отвечать на сообщения
Вы не можете редактировать свои сообщения
Вы не можете удалять свои сообщения
Вы не можете голосовать в опросах
Вы не можете прикреплять файлы к сообщениям
Вы можете скачивать файлы