Loading...
Error

Скачать Люди Икс: Последняя битва / X-Men: The Last Stand (Бретт Рэтнер) [2006, фантастика, боевик, триллер, приключения, BDRip-AVC] [Dub (CEE)] + [Original] + [Subs (Rus, Eng)] торрент без регистрации

 
Статистика раздачи
Размер:  2,18 GB   |    Скачан:  562 раза
Сидов:  1  [  0 KB/s  ]  
 
Автор Сообщение

Marsianka

[] 

Люди Икс: Последняя битва / X-Men: The Last Stand
«На чьей стороне будешь ты?»

Страна: Канада , США , Великобритания
Жанр: Фантастика, Боевик, Триллер, Приключения
Год выпуска: 2006
Продолжительность: 01:44:05
Перевод: Профессиональный (полное дублирование, CEE
)
Оригинальная аудиодорожка: Английский
Cубтитры: Русские (полные), Английские (полные) (*srt)
Режиссер: Бретт Рэтнер / Brett Ratner
В ролях: Хью Джекман
, Патрик Стюарт, Иэн МакКеллен, Холли Берри, Фамке Янссен, Келси Грэммер, Шон Эшмор, Аарон Стэнфорд, Бен Фостер, Эллен Пейдж и др.
Описание:
Людям Икс, во главе с профессором Чарльзом Ксавьером, приходится вступить в битву с самой эволюцией в лице их воскресшего товарища по команде… Джин Грэй, возрожденная в облике Темного Феникса, представляет опасность не только для самой себя, и для мутантов, и для всей человеческой расы.
А, когда наконец найдено возможное лекарство, то, что может предотвратить генетические мутации — наступает время решающей битвы между Людьми Икс, Братством Магнето и человечеством.


Релиз от -
Автор: AngelOfTrue
Качество видео: BDRip-AVC | X-Men: The Last Stand (2006) Blu-ray CEE 1080p AVC DTS 5.1-EiMi
Формат видео: MKV
Видео: 984x410 (2,40:1), 23,976 fps, x264 ~2230 kbps avg, 0.231 bit/pixel
Аудио #1: AC3 Dolby Digital / 48 KHz / 384 kbps / 3/2 (L,C,R,l,r) + LFE ch| Dub (CEE)
Аудио #2: AC3 Dolby Digital / 48 KHz / 384 kbps / 3/2 (L,C,R,l,r) + LFE ch| Original (English)

avs [info]: 984x410p 1:1 @ 2997/125 fps (cfr)
x264 [warning]: --psnr used with psy on: results will be invalid!
x264 [warning]: --tune psnr should be used if attempting to benchmark psnr!
x264 [info]: using SAR=1/1
x264 [info]: using cpu capabilities: MMX2 SSE2Fast SSSE3 SSE4.2 AVX AVX2 FMA3 LZCNT BMI1 BMI2
x264 [info]: profile High, level 3.2
x264 [info]: frame I:1295 Avg QP:17.56 size: 65698 PSNR Mean Y:45.34 U:47.87 V:49.38 Avg:46.13 Global:45.43
x264 [info]: frame P:31816 Avg QP:20.91 size: 21476 PSNR Mean Y:43.40 U:47.12 V:48.66 Avg:44.38 Global:43.44
x264 [info]: frame B:116625 Avg QP:22.31 size: 8333 PSNR Mean Y:42.35 U:46.35 V:48.28 Avg:43.39 Global:42.52
x264 [info]: consecutive B-frames: 2.3% 2.8% 7.1% 16.8% 14.6% 43.9% 6.5% 1.3% 2.2% 0.8% 0.5% 0.3% 0.4% 0.3%
x264 [info]: mb I I16..4: 5.7% 72.4% 21.8%
x264 [info]: mb P I16..4: 0.8% 10.3% 1.6% P16..4: 28.3% 35.4% 14.4% 2.5% 0.2% skip: 6.5%
x264 [info]: mb B I16..4: 0.1% 1.2% 0.2% B16..8: 36.9% 20.6% 3.9% direct: 6.3% skip:31.0% L0:43.7% L1:44.9% BI:11.4%
x264 [info]: 8x8 transform intra:79.8% inter:59.3%
x264 [info]: direct mvs spatial:98.0% temporal:2.0%
x264 [info]: coded y,uvDC,uvAC intra: 90.1% 84.8% 58.7% inter: 31.3% 24.0% 8.0%
x264 [info]: i16 v,h,dc,p: 24% 18% 9% 49%
x264 [info]: i8 v,h,dc,ddl,ddr,vr,hd,vl,hu: 7% 8% 5% 11% 16% 14% 15% 12% 13%
x264 [info]: i4 v,h,dc,ddl,ddr,vr,hd,vl,hu: 9% 8% 4% 10% 16% 14% 15% 11% 13%
x264 [info]: i8c dc,h,v,p: 40% 23% 17% 20%
x264 [info]: Weighted P-Frames: Y:5.4% UV:2.4%
x264 [info]: ref P L0: 49.7% 8.2% 16.2% 7.3% 5.3% 3.9% 3.1% 1.8% 1.4% 1.2% 1.0% 0.8% 0.1% 0.0%
x264 [info]: ref B L0: 71.8% 13.4% 5.8% 2.9% 2.0% 1.5% 1.1% 0.6% 0.5% 0.3% 0.1%
x264 [info]: ref B L1: 92.2% 7.8%
x264 [info]: SSIM Mean Y:0.9676046 (14.895db)
x264 [info]: PSNR Mean Y:42.603 U:46.524 V:48.368 Avg:43.627 Global:42.721 kb/s:2229.19
x264 [total]: encoded 149736 frames, 8.59 fps, 2229.19 kb/s

Формат : Matroska
Версия формата : Version 4 / Version 2
Размер файла : 2,18 Гбайт
Продолжительность : 1 ч. 44 м.
Общий поток : 2999 Кбит/сек
Дата кодирования : UTC 2013-12-10 12:06:48
Программа кодирования : mkvmerge v6.1.0 ('Old Devil') built on Mar 4 2013 09:10:42
Библиотека кодирования : libebml v1.3.0 + libmatroska v1.4.0
Видео
Идентификатор : 1
Формат : AVC
Формат/Информация : Advanced Video Codec
Профиль формата : High@L3.2
Параметр CABAC формата : Да
Параметр ReFrames формата : 12 кадров
Идентификатор кодека : V_MPEG4/ISO/AVC
Продолжительность : 1 ч. 44 м.
Битрейт : 2230 Кбит/сек
Ширина : 984 пикселя
Высота : 410 пикселей
Соотношение сторон : 2,40:1
Режим частоты кадров : Постоянный
Частота кадров : 23,976 кадра/сек
Цветовое пространство : YUV
Субдискретизация насыщенности : 4:2:0
Битовая глубина : 8 бит
Тип развёртки : Прогрессивная
Бит/(Пиксели*Кадры) : 0.231
Размер потока : 1,58 Гбайт (72%)
Заголовок : Lyudi.Iks.Poslednyaya.Bitva.2006.DUAL.BDRip-AVC.AC3.-HQ-ViDEO
Библиотека кодирования : x264 core 130 r2273 b3065e6
Настройки программы : cabac=1 / ref=12 / deblock=1:-3:-2 / analyse=0x3:0x133 / me=umh / subme=11 / psy=1 / psy_rd=1.03:0.00 / mixed_ref=1 / me_range=32 / chroma_me=1 / trellis=2 / 8x8dct=1 / cqm=0 / deadzone=21,11 / fast_pskip=0 / chroma_qp_offset=-2 / threads=6 / lookahead_threads=1 / sliced_threads=0 / nr=0 / decimate=0 / interlaced=0 / bluray_compat=0 / constrained_intra=0 / bframes=13 / b_pyramid=2 / b_adapt=2 / b_bias=0 / direct=3 / weightb=1 / open_gop=0 / weightp=2 / keyint=240 / keyint_min=23 / scenecut=40 / intra_refresh=0 / rc_lookahead=60 / rc=2pass / mbtree=0 / bitrate=2230 / ratetol=1.0 / qcomp=0.60 / qpmin=0 / qpmax=69 / qpstep=4 / cplxblur=20.0 / qblur=0.5 / vbv_maxrate=20000 / vbv_bufsize=20000 / nal_hrd=none / ip_ratio=1.35 / pb_ratio=1.25 / aq=2:1.00
Язык : Russian
Default : Да
Forced : Нет
Основные цвета : BT.709
Характеристики трансфера : BT.709
Аудио #1
Идентификатор : 2
Формат : AC-3
Формат/Информация : Audio Coding 3
Расширение режима : CM (complete main)
Параметр Endianness формата : Big
Идентификатор кодека : A_AC3
Продолжительность : 1 ч. 44 м.
Вид битрейта : Постоянный
Битрейт : 384 Кбит/сек
Каналы : 6 каналов
Расположение каналов : Front: L C R, Side: L R, LFE
Частота : 48,0 КГц
Битовая глубина : 16 бит
Метод сжатия : С потерями
Размер потока : 286 Мбайт (13%)
Заголовок : Dub (CEE)
Язык : Russian
Default : Да
Forced : Нет
Аудио #2
Идентификатор : 3
Формат : AC-3
Формат/Информация : Audio Coding 3
Расширение режима : CM (complete main)
Параметр Endianness формата : Big
Идентификатор кодека : A_AC3
Продолжительность : 1 ч. 44 м.
Вид битрейта : Постоянный
Битрейт : 384 Кбит/сек
Каналы : 6 каналов
Расположение каналов : Front: L C R, Side: L R, LFE
Частота : 48,0 КГц
Битовая глубина : 16 бит
Метод сжатия : С потерями
Размер потока : 286 Мбайт (13%)
Заголовок : Original (English)
Язык : English
Default : Нет
Forced : Нет
Текст #1
Идентификатор : 4
Формат : UTF-8
Идентификатор кодека : S_TEXT/UTF8
Идентификатор кодека/Информация : UTF-8 Plain Text
Заголовок : Russian (full)
Язык : Russian
Default : Нет
Forced : Нет
Текст #2
Идентификатор : 5
Формат : UTF-8
Идентификатор кодека : S_TEXT/UTF8
Идентификатор кодека/Информация : UTF-8 Plain Text
Заголовок : English (full)
Язык : English
Default : Нет
Forced : Нет


Приятного вам просмотра!



Скачать Люди.Икс.Последняя.битва.X-Men.The.Last.Stand.(Бретт.Рэтнер).[2006.фантастика.боевик.триллер.приключения.BDRip-AVC].[Dub.(CEE)].+.[Original].+.[Subs.(Rus.Eng)].torrent без регистрации
Золото ЗОЛОТАЯ РАЗДАЧА! СКАЧАННОЕ НЕ ЗАСЧИТЫВАЕТСЯ! Золото
Дата: Зарегистрирован   [ Тип: внутренний ] Как тут cкачать?
MAGNET ссылка
MAGNET ссылка


Скачать .torrent

12 KB

Статус: проверено DHT
Скачан: торрент - 562 раз, раздача полностью - 98 раз
Размер: 2,18 GB
Оценка:  5 (Голосов: 1)
Поблагодарили: 6
Поделиться ссылкой на эту раздачу с друзьями:
В контактеFacebookОдноклассникиTwitterLivejournalМой МирLiveinternet
 

 
Показать сообщения:    


Вы не можете начинать темы
Вы не можете отвечать на сообщения
Вы не можете редактировать свои сообщения
Вы не можете удалять свои сообщения
Вы не можете голосовать в опросах
Вы не можете прикреплять файлы к сообщениям
Вы можете скачивать файлы