Loading...
Error

Скачать Зеркала / Mirrors (Александр Ажа) [2008, США, ужасы, триллер, детектив, BDRip] [UNRATED] [Dub] торрент без регистрации

 
Статистика раздачи
Размер:  1,45 GB   |    Скачан:  195 раз
Сидов:  1  [  0 KB/s  ]  
 
Автор Сообщение

Marsianka

[] 

Зеркала / Mirrors

Страна: США, Румыния, Германия, Испания, Франция
Жанр: ужасы, триллер, детектив
Год выпуска: 2008
Продолжительность: 01:51:22
Перевод: Профессиональный (дублированный)
Cубтитры: нет
Режиссер: Александр Ажа / Alexandre Aja
В ролях: Кифер Сазерленд, Пола Пэттон, Эми Смарт, Мэри Бет Пейл, Джейсон Флеминг, Кэмерон Бойс, Эрика Глюк, Джулиан Гловер, Джон Шрэпнел
Описание: Бен Карсон знавал времена и получше. Уже прошел почти год с тех пор как неуравновешенного детектива отстранили от работы в Полицейском управлении г. Нью-Йорка за убийство другого сотрудника спецслужбы, несчастный случай, который не только стоил ему работы, но и пробудил в нем тягу к алкоголю и агрессивность, из-за чего жена и дети отдалились от него, а сам он нашел пристанище на диване в квартире своей сестры в Куинс.
Потеряв надежду вернуться к нормальной жизни и воссоединиться с семьей, Карсон нанимается на работу ночным сторожем выгоревших руин универмага «Mayflower». То, что когда-то было символом процветания и роскоши, теперь медленно разрушается в темноте, как загнивающий корабль-призрак, разоренный гигантским пожаром, поглотившим множество невинных жизней.
Когда Карсон обходит дозором свои владения, обугленные развалины универмага, он начинает замечать что-то зловещее в декоративных зеркалах, украшающих стены «Mayflower». В огромных мерцающих стеклах отражаются страшные, потрясающие Карсона образы…



Качество видео: BDRip | Dreamcatcher/Blu-ray CEE 1080p AVC DTS 5.1
Формат видео: AVI
Видео: 720x304 (2.37:1), 23.976 fps, XviD build 73 ~1412 kbps avg, 0.27 bit/pixel
Аудио: 48 kHz, AC3 Dolby Digital, 3/2 (L,C,R,l,r) + LFE ch, ~448 kbps
Общее
Полное имя : C:\Documents and Settings\Пользователь\Рабочий стол\Торрентс.ру\Mirrors.2008.BDRip.Unrated.Dub_by_LBS.avi
Формат : AVI
Формат/Информация : Audio Video Interleave
Размер файла : 1,45 Гбайт
Продолжительность : 1 ч. 51 м.
Общий поток : 1870 Кбит/сек
Режиссёр : Last Boy Scout
Программа кодирования : VirtualDubMod 1.5.10.3 | www.virtualdub-fr.org || (build 2550/release)
Правообладатель : rutracker.org 10.12.2013
Примечание : BDRip Unrated Dub
Видео
Идентификатор : 0
Формат : MPEG-4 Visual
Профиль формата : Advanced Simple@L5
Параметр BVOP формата : 1
Параметр QPel формата : Нет
Параметр GMC формата : Без точки перехода
Параметр матрицы формата : Выборочная
Идентификатор кодека : XVID
Идентификатор кодека/Подсказка : XviD
Продолжительность : 1 ч. 51 м.
Битрейт : 1413 Кбит/сек
Ширина : 720 пикселей
Высота : 304 пикселя
Соотношение сторон : 2,35:1
Частота кадров : 23,976 кадра/сек
Цветовое пространство : YUV
Субдискретизация насыщенности : 4:2:0
Битовая глубина : 8 бит
Тип развёртки : Прогрессивная
Метод сжатия : С потерями
Бит/(Пиксели*Кадры) : 0.269
Размер потока : 1,10 Гбайт (76%)
Библиотека кодирования : XviD 73
Аудио
Идентификатор : 1
Формат : AC-3
Формат/Информация : Audio Coding 3
Расширение режима : CM (complete main)
Параметр Endianness формата : Big
Идентификатор кодека : 2000
Продолжительность : 1 ч. 51 м.
Вид битрейта : Постоянный
Битрейт : 448 Кбит/сек
Каналы : 6 каналов
Расположение каналов : Front: L C R, Side: L R, LFE
Частота : 48,0 КГц
Битовая глубина : 16 бит
Метод сжатия : С потерями
Размер потока : 357 Мбайт (24%)
Выравнивание : Разделение по промежуткам
Продолжительность промежутка : 42 мс. (1,00 видеокадр)
Время предзагрузки промежутка : 500 мс.



Скачать Зеркала.Mirrors.(Александр.Ажа).[2008.США.ужасы.триллер.детектив.BDRip].[UNRATED].[Dub].torrent без регистрации
Золото ЗОЛОТАЯ РАЗДАЧА! СКАЧАННОЕ НЕ ЗАСЧИТЫВАЕТСЯ! Золото
Дата: Зарегистрирован   [ Тип: внутренний ] Как тут cкачать?
MAGNET ссылка
MAGNET ссылка


Скачать .torrent

15 KB

Статус: проверено DHT
Скачан: торрент - 195 раз, раздача полностью - 243 раз
Размер: 1,45 GB
Оценка:  5 (Голосов: 1)
Поблагодарили: 6
Поделиться ссылкой на эту раздачу с друзьями:
В контактеFacebookОдноклассникиTwitterLivejournalМой МирLiveinternet
 

 
Показать сообщения:    


Вы не можете начинать темы
Вы не можете отвечать на сообщения
Вы не можете редактировать свои сообщения
Вы не можете удалять свои сообщения
Вы не можете голосовать в опросах
Вы не можете прикреплять файлы к сообщениям
Вы можете скачивать файлы