Loading...
Error

Скачать Любовь в стиле сальса / Горячий Тамале / Горячая Тамале / Hot Tamale (Майкл Дамиан) [2006, триллер, криминал, комедия, DVDRip-AVC] [DVO] торрент без регистрации

 
Статистика раздачи
Размер:  1,45 GB   |    Скачан:  110 раз
Сидов:  1  [  0 KB/s  ]  
 
Автор Сообщение

Marsianka

[] 

Горячий Тамале / Hot Tamale
Страна: США
Жанр: триллер, криминал, комедия
Год выпуска: 2006
Продолжительность: 01:38:06
Перевод: Профессиональный (двухголосый закадровый)
Cубтитры: нет
Режиссер: Майкл Дамиан / Michael Damian
В ролях: Рэнди Спеллинг, Диора Бэрд, Джейсон Пристли, Кармен Электра, Майк Старр
Описание: Парень из провинции едет на экскурсию в Лос-Анджелес. Но вместо пляжей, ресторанов и встреч с кинозвездами у него образовались сплошные перестрелки, погони, ограбления и наемные убийцы...



Качество видео: DVDRip-AVC
Формат видео: MKV
Видео: AVC, 720x576@1024x576, 25.00fps, 1930kbps
Аудио: AC3, 48kHz, stereo, 192kbps
General
Unique ID : 239217517981190493683977602378246297266 (0xB3F79E3C784810978097E2CC0EDE96B2)
Complete name : D:\[2006] Hot Tamale.mkv
Format : Matroska
Format version : Version 2
File size : 1.45 GiB
Duration : 1h 38mn
Overall bit rate : 2 123 Kbps
Encoded date : UTC 2013-12-09 18:03:10
Writing application : mkvmerge v4.0.0 ('The Stars were mine') сборка от Jun 6 2010 16:18:42
Writing library : libebml v1.0.0 + libmatroska v1.0.0
Video
ID : 1
Format : AVC
Format/Info : Advanced Video Codec
Format profile : High@L4.1
Format settings, CABAC : Yes
Format settings, ReFrames : 7 frames
Codec ID : V_MPEG4/ISO/AVC
Duration : 1h 38mn
Bit rate : 1 930 Kbps
Width : 720 pixels
Height : 576 pixels
Display aspect ratio : 16:9
Frame rate : 25.000 fps
Standard : PAL
Color space : YUV
Chroma subsampling : 4:2:0
Bit depth : 8 bits
Scan type : Progressive
Bits/(Pixel*Frame) : 0.186
Stream size : 1.29 GiB (89%)
Title : DVDRip by fozzy
Writing library : x264 core 130 r2273 b3065e6
Encoding settings : cabac=1 / ref=7 / deblock=1:-2:-1 / analyse=0x3:0x133 / me=umh / subme=9 / psy=1 / psy_rd=1.00:0.10 / mixed_ref=1 / me_range=32 / chroma_me=1 / trellis=2 / 8x8dct=1 / cqm=0 / deadzone=21,11 / fast_pskip=0 / chroma_qp_offset=-3 / threads=6 / lookahead_threads=1 / sliced_threads=0 / nr=0 / decimate=1 / interlaced=0 / bluray_compat=0 / constrained_intra=0 / bframes=8 / b_pyramid=2 / b_adapt=0 / b_bias=0 / direct=3 / weightb=1 / open_gop=0 / weightp=2 / keyint=250 / keyint_min=25 / scenecut=40 / intra_refresh=0 / rc_lookahead=60 / rc=2pass / mbtree=1 / bitrate=1930 / ratetol=1.0 / qcomp=0.60 / qpmin=0 / qpmax=69 / qpstep=4 / cplxblur=20.0 / qblur=0.5 / ip_ratio=1.40 / aq=1:1.00
Language : Russian
Audio
ID : 2
Format : AC-3
Format/Info : Audio Coding 3
Mode extension : CM (complete main)
Codec ID : A_AC3
Duration : 1h 38mn
Bit rate mode : Constant
Bit rate : 192 Kbps
Channel(s) : 2 channels
Channel positions : Front: L R
Sampling rate : 48.0 KHz
Bit depth : 16 bits
Compression mode : Lossy
Stream size : 135 MiB (9%)
Title : Русский (двухголосый закадровый)
Language : Russian



Скачать Любовь.в.стиле.сальса.Горячий.Тамале.Горячая.Тамале.Hot.Tamale.(Майкл.Дамиан).[2006.триллер.криминал.комедия.DVDRip-AVC].[DVO].torrent без регистрации
Золото ЗОЛОТАЯ РАЗДАЧА! СКАЧАННОЕ НЕ ЗАСЧИТЫВАЕТСЯ! Золото
Дата: Зарегистрирован   [ Тип: внутренний ] Как тут cкачать?
MAGNET ссылка
MAGNET ссылка


Скачать .torrent

4 KB

Статус: проверено DHT
Скачан: торрент - 110 раз, раздача полностью - 0 раз
Размер: 1,45 GB
Оценка:  - (Голосов: 0)
Поблагодарили: 1
Поделиться ссылкой на эту раздачу с друзьями:
В контактеFacebookОдноклассникиTwitterLivejournalМой МирLiveinternet
 

 
Показать сообщения:    


Вы не можете начинать темы
Вы не можете отвечать на сообщения
Вы не можете редактировать свои сообщения
Вы не можете удалять свои сообщения
Вы не можете голосовать в опросах
Вы не можете прикреплять файлы к сообщениям
Вы можете скачивать файлы