Loading...
Error

/ Whiteout ( ) [2009, , , , , BDRip] [Dub] + [Original (Eng)] + [Subs (Rus, Eng)]

 
1,77 GB   |    :  121

: 20

 

Marsianka

[] 

/ Whiteout

: 2009
: , , , / Warner Bros. Pictures Co.
: , , ,
: 01:40:44
: ( )
BD EUR +
C: , ( .srt*)
:
/ Dominic Sena
:
(Carrie Stetko), (Robert Pryce), (Dr. John Fury), (Delfy), Β (Russell Haden), (Sam Murphy), (Jack), (Rubin), (McGuire), (Rhonda), (Russian Pilot)
:
, ,


: BDRip
: AVI
: 720x304 (2.37:1), 23.976 fps, XviD build 73 ~1614 kbps avg, 0.31 bit/pixel
#1: 48 kHz, AC3 Dolby Digital, 3/2 (L,C,R,l,r) + LFE ch, ~448.00 kbps avg (RUS)
#2: 48 kHz, AC3 Dolby Digital, 3/2 (L,C,R,l,r) + LFE ch, ~448.00 kbps avg (ENG)

:

General
Complete name : D:\Belaya_mgla_2009_BDRip_by_Dalemake.avi
Format : AVI
Format/Info : Audio Video Interleave
File size : 1.46 GiB
Duration : 1h 40mn
Overall bit rate : 2 072 Kbps
Writing application : VirtualDubMod 1.5.10.3 | www.virtualdub-fr.org || (build 2550/release)
Writing library : VirtualDubMod build 2550/release
Video
ID : 0
Format : MPEG-4 Visual
Format profile : Advanced Simple@L5
Format settings, BVOP : 1
Format settings, QPel : No
Format settings, GMC : No warppoints
Format settings, Matrix : Custom
Codec ID : XVID
Codec ID/Hint : XviD
Duration : 1h 40mn
Bit rate : 1 615 Kbps
Width : 720 pixels
Height : 304 pixels
Display aspect ratio : 2.35:1
Frame rate : 23.976 fps
Color space : YUV
Chroma subsampling : 4:2:0
Bit depth : 8 bits
Scan type : Progressive
Compression mode : Lossy
Bits/(Pixel*Frame) : 0.308
Stream size : 1.14 GiB (78%)
Writing library : XviD 73
Audio
ID : 1
Format : AC-3
Format/Info : Audio Coding 3
Mode extension : CM (complete main)
Format settings, Endianness : Big
Codec ID : 2000
Duration : 1h 40mn
Bit rate mode : Constant
Bit rate : 448 Kbps
Channel(s) : 6 channels
Channel positions : Front: L C R, Side: L R, LFE
Sampling rate : 48.0 KHz
Bit depth : 16 bits
Compression mode : Lossy
Stream size : 323 MiB (22%)
Alignment : Split accross interleaves
Interleave, duration : 42 ms (1.00 video frame)
Interleave, preload duration : 500 ms



..Whiteout.(.).[2009.....BDRip].[Dub].+.[Original.(Eng)].+.[Subs.(Rus.Eng)].torrent
  ! ! 
:   [ : ] c?
MAGNET
MAGNET


.torrent

19 KB

: DHT
: - 121 , - 37
: 1,77 GB
- (: 0)
: 0
:
 FacebookTwitterLivejournal Liveinternet
 

 
: