Loading...
Error

Скачать Чёрные воды озера Эха / The Black Waters of Echo's Pond (Гэбриел Болонья) [2009, триллер, мистика, ужасы, HDRip] [DVO] + [Original (Eng)] торрент без регистрации

 
Статистика раздачи
Размер:  1,37 GB   |    Скачан:  147 раз
Сидов:  1  [  0 KB/s  ]  
 
Автор Сообщение

Marsianka

[] 

Чёрные воды озера Эха / The Black Waters of Echo's Pond
Страна: США
Жанр: триллер, мистика, ужасы
Год выпуска: 2009
Продолжительность: 01:32:37
Перевод: Любительский (двухголосый закадровый) Den904 & DeadSno
Перевод на русский язык Antonio
Cубтитры: нет
Оригинальная аудиодорожка: английский
Режиссер: Гэбриел Болонья / Gabriel Bologna
В ролях: Роберт Патрик, Даниэль Харрис, Шон Лоулор, Джеймс Дювал, Ник Меннелл, Марсей Монро, Аркадий Голубович, Электра Авеллан, Элиз Авеллан, Ховард Уолкер
Описание: Девять друзей отправляются на выходные в старинный дом на частном острове
и обнаруживают игру, которая высвобождает их самые худшие стороны. Зависть, жадность, ненависть, страсть, всё, что таилось глубоко в их душах, вырывается наружу и доходит до точки кипения.






Качество видео: HDRip
Формат видео: AVI
Видео: Xvid 720x400 23.98fps 1467Kbps

Сэмпл
Аудио 1: Dolby AC3 48000Hz stereo 192Kbps [русский]
Аудио 2: Dolby AC3 48000Hz 6 Audio Channel 448Kbps [английский]
Формат субтитров: softsub (SRT)
The.Black.Waters.Of.Echos.Pond.2009.BDRiP.AC3-5.1.XviD-AXED
General
Complete name : d:\TORRENTS\Чёрные воды озера Эха.avi
Format : AVI
Format/Info : Audio Video Interleave
File size : 1.37 GiB
Duration : 1h 32mn
Overall bit rate : 2 124 Kbps
Video
ID : 0
Format : MPEG-4 Visual
Format profile : Advanced Simple@L5
Format settings, BVOP : 2
Format settings, QPel : No
Format settings, GMC : No warppoints
Format settings, Matrix : Default (H.263)
Codec ID : XVID
Codec ID/Hint : XviD
Duration : 1h 32mn
Bit rate : 1 467 Kbps
Width : 720 pixels
Height : 400 pixels
Display aspect ratio : 16:9
Frame rate : 23.976 fps
Color space : YUV
Chroma subsampling : 4:2:0
Bit depth : 8 bits
Scan type : Progressive
Compression mode : Lossy
Bits/(Pixel*Frame) : 0.212
Stream size : 972 MiB (69%)
Writing library : XviD 64
Audio #1
ID : 1
Format : AC-3
Format/Info : Audio Coding 3
Mode extension : CM (complete main)
Format settings, Endianness : Big
Codec ID : 2000
Duration : 1h 32mn
Bit rate mode : Constant
Bit rate : 192 Kbps
Channel(s) : 2 channels
Channel positions : Front: L R
Sampling rate : 48.0 KHz
Bit depth : 16 bits
Compression mode : Lossy
Stream size : 127 MiB (9%)
Alignment : Aligned on interleaves
Interleave, duration : 32 ms (0.77 video frame)
Audio #2
ID : 2
Format : AC-3
Format/Info : Audio Coding 3
Mode extension : CM (complete main)
Format settings, Endianness : Big
Codec ID : 2000
Duration : 1h 32mn
Bit rate mode : Constant
Bit rate : 448 Kbps
Channel(s) : 6 channels
Channel positions : Front: L C R, Side: L R, LFE
Sampling rate : 48.0 KHz
Bit depth : 16 bits
Compression mode : Lossy
Stream size : 297 MiB (21%)
Alignment : Aligned on interleaves
Interleave, duration : 32 ms (0.77 video frame)



Скачать Чёрные.воды.озера.Эха.The.Black.Waters.of.Echo's.Pond.(Гэбриел.Болонья).[2009.триллер.мистика.ужасы.HDRip].[DVO].+.[Original.(Eng)].torrent без регистрации
Золото ЗОЛОТАЯ РАЗДАЧА! СКАЧАННОЕ НЕ ЗАСЧИТЫВАЕТСЯ! Золото
Дата: Зарегистрирован   [ Тип: внутренний ] Как тут cкачать?
MAGNET ссылка
MAGNET ссылка


Скачать .torrent

14 KB

Статус: проверено DHT
Скачан: торрент - 147 раз, раздача полностью - 32 раз
Размер: 1,37 GB
Оценка:  - (Голосов: 0)
Поблагодарили: 1
Поделиться ссылкой на эту раздачу с друзьями:
В контактеFacebookОдноклассникиTwitterLivejournalМой МирLiveinternet
 

 
Показать сообщения:    


Вы не можете начинать темы
Вы не можете отвечать на сообщения
Вы не можете редактировать свои сообщения
Вы не можете удалять свои сообщения
Вы не можете голосовать в опросах
Вы не можете прикреплять файлы к сообщениям
Вы можете скачивать файлы