Loading...
Error

Скачать Чужие Деньги / Other People's Money (Норман Джуисон) [1991, комедия, мелодрама, HDTVRip] [Dub (Варус Видео)] + [MVO (НТВ)] торрент без регистрации

 
Статистика раздачи
Размер:  1,44 GB   |    Скачан:  95 раз
Сидов:  1  [  0 KB/s  ]  
 
Автор Сообщение

Marsianka

[] 

Чужие Деньги / Other People's Money
Страна: США
Жанр: комедия, мелодрама
Год выпуска: 1991
Продолжительность: 01:36:48
Перевод: Профессиональный (дублированный) Варус Видео
Перевод 2: Профессиональный (многоголосый закадровый) НТВ
Cубтитры: нет
Режиссер: Норман Джуисон / Norman Jewison
В ролях: Дэнни ДеВито, Грегори Пек, Пенелопа Энн Миллер, Пайпер Лори, Дин Джонс, Р.Д. Колл, Мо Гаффни, Бетти Хенрице, Том Элдридж, Лейла Кензл
Описание: Акула Уолл-стрита Лоуренс Гарфилд по прозвищу Ларри-Ликвидатор, известен благодаря тем компаниям, которые он развалил. Он занимается исключительно собственным обогащением за счет других. Его очередная цель — корпорация, которой владеет восьмидесятилетний патриарх Йоргенсон. Чтобы не дать противостоять коварному Гарфилду, старик нанимает не менее коварную юристку.

Видео от NovaLan
Дубляж Варус Видео от . По возможности отреставрирован в стерео-панораму.
Перевод НТВ Мужские роли озвучивали Андрей Ярославцев и Александр Белый (голос Дэнни ДеВито).
Качество видео: HDTVRip
Формат видео: AVI
Видео: XviD, 720x400 (16:9), 25.000 fps, 1736 kbps avg

СЭМПЛ + СРАВНЕНИЕ ПЕРЕВОДОВ
1 - 48 khz, AC3 Dolby Digital, 2/0 (L,R) ch, ~192 kbps [Варус Видео] VHSRip
2 - 48 khz, AC3 Dolby Digital, 2/0 (L,R) ch, ~192 kbps [НТВ / ТВ3] IPTVRip
Общее
Полное имя : E:\Альберт\Downloads\Чужие Деньги.avi
Формат : AVI
Формат/Информация : Audio Video Interleave
Размер файла : 1,44 Гбайт
Продолжительность : 1 ч. 36 м.
Общий поток : 2134 Кбит/сек
Название фильма : Chuzhie.dengi.1991.XviD.HDTVRip.NovaLan.avi
Режиссёр : NovaLan_alek7120
Программа кодирования : VirtualDubMod 1.5.10.2 (build 2540/release)
Библиотека кодирования : VirtualDubMod build 2540/release
Правообладатель : http://tracker.nova-lan.ru
Видео
Идентификатор : 0
Формат : MPEG-4 Visual
Профиль формата : Advanced Simple@L5
Параметр BVOP формата : 1
Параметр QPel формата : Нет
Параметр GMC формата : Без точки перехода
Параметр матрицы формата : Default (H.263)
Идентификатор кодека : XVID
Идентификатор кодека/Подсказка : XviD
Продолжительность : 1 ч. 36 м.
Битрейт : 1736 Кбит/сек
Ширина : 720 пикселей
Высота : 400 пикселей
Соотношение сторон : 16:9
Частота кадров : 25,000 кадров/сек
Цветовое пространство : YUV
Субдискретизация насыщенности : 4:2:0
Битовая глубина : 8 бит
Тип развёртки : Прогрессивная
Метод сжатия : С потерями
Бит/(Пиксели*Кадры) : 0.241
Размер потока : 1,17 Гбайт (81%)
Библиотека кодирования : XviD 1.2.0.dev47 (UTC 2006-11-01)
Аудио #1
Идентификатор : 1
Формат : AC-3
Формат/Информация : Audio Coding 3
Расширение режима : CM (complete main)
Параметр Endianness формата : Big
Идентификатор кодека : 2000
Продолжительность : 1 ч. 36 м.
Вид битрейта : Постоянный
Битрейт : 192 Кбит/сек
Каналы : 2 канала
Расположение каналов : Front: L R
Частота : 48,0 КГц
Битовая глубина : 16 бит
Метод сжатия : С потерями
Размер потока : 133 Мбайт (9%)
Выравнивание : Разделение по промежуткам
Продолжительность промежутка : 40 мс. (1,00 видеокадр)
Время предзагрузки промежутка : 500 мс.
Аудио #2
Идентификатор : 2
Формат : AC-3
Формат/Информация : Audio Coding 3
Расширение режима : CM (complete main)
Параметр Endianness формата : Big
Идентификатор кодека : 2000
Продолжительность : 1 ч. 36 м.
Вид битрейта : Постоянный
Битрейт : 192 Кбит/сек
Каналы : 2 канала
Расположение каналов : Front: L R
Частота : 48,0 КГц
Битовая глубина : 16 бит
Метод сжатия : С потерями
Размер потока : 133 Мбайт (9%)
Выравнивание : Разделение по промежуткам
Продолжительность промежутка : 40 мс. (1,00 видеокадр)
Время предзагрузки промежутка : 500 мс.



Скачать Чужие.Деньги.Other.People's.Money.(Норман.Джуисон).[1991.комедия.мелодрама.HDTVRip].[Dub.(Варус.Видео)].+.[MVO.(НТВ)].torrent без регистрации
Золото ЗОЛОТАЯ РАЗДАЧА! СКАЧАННОЕ НЕ ЗАСЧИТЫВАЕТСЯ! Золото
Дата: Зарегистрирован   [ Тип: внутренний ] Как тут cкачать?
MAGNET ссылка
MAGNET ссылка


Скачать .torrent

15 KB

Статус: проверено DHT
Скачан: торрент - 95 раз, раздача полностью - 14 раз
Размер: 1,44 GB
Оценка:  - (Голосов: 0)
Поблагодарили: 2
Поделиться ссылкой на эту раздачу с друзьями:
В контактеFacebookОдноклассникиTwitterLivejournalМой МирLiveinternet
 

 
Показать сообщения:    


Вы не можете начинать темы
Вы не можете отвечать на сообщения
Вы не можете редактировать свои сообщения
Вы не можете удалять свои сообщения
Вы не можете голосовать в опросах
Вы не можете прикреплять файлы к сообщениям
Вы можете скачивать файлы