Loading...
Error

Скачать Инопланетянин - терминатор / Враждебный терминатор / Пришелец из бездны / Alien Terminator (Дэйв Пэйн) [1995, ужасы, фантастика, DVDRip] [DVO (Лицензия)] + [AVO (Алексеев)] + [AVO (Володарский)] торрент без регистрации

 
Статистика раздачи
Размер:  1,43 GB   |    Скачан:  135 раз
Сидов:  1  [  0 KB/s  ]  
 
Автор Сообщение

Marsianka

[] 

Инопланетянин - терминатор / Враждебный терминатор / Пришелец из бездны / Alien Terminator
Страна: США
Жанр: ужасы, фантастика
Год выпуска: 1995
Продолжительность: 01:22:03
Режиссер: Дэйв Пэйн / Dave Payne
В ролях: Мария Форд, Роджер Халстон, Эмиль Левисетти, Лиза Бойл, Боб Макфарланд, Кевин Альбер, Бетси Болдуин.
Описание: Уже два года элитная группа ученых работает в недрах Земли на глубине 8 километров, выполняя особые заказы могущественной корпорации «Эртек». Но никто не знает, что среди них есть одержимый гений, втайне создающий ДНК непобедимого солдата будущего!
Ситуация в лаборатории становится угрожающей, когда оттуда сбегает подопытная крыса, умеющая выживать в любых условиях и приобретающая черты пожираемых ею жертв. Вскоре заложники своих чудовищных экспериментов осознают, что они смогут выжить, только если придумают хитрый способ победить могучий чужеродный организм…



Качество видео: DVDRip
Формат видео: AVI
Видео: 640x480 (1.33:1), 23.976 fps, XviD build 50 ~1898 kbps avg, 0.26 bit/pixel
За исходник спасибо roma19981998
Синхрон всех русских дорожек - kosmoaelita
Перевод: Профессиональный (двухголосый закадровый) Лицензия
Перевод 2: Авторский (одноголосый закадровый) Алексеев
Перевод 3: Авторский (одноголосый закадровый) Володарский
Cубтитры: нет
Аудио: 48 kHz, AC3 Dolby Digital, 2 ch, ~192.00 kbps avg DVO
Аудио 2: 48 kHz, AC3 Dolby Digital, 2 ch, ~192.00 kbps avg Алексеев
Аудио 3: 48 kHz, AC3 Dolby Digital, 2 ch, ~192.00 kbps avg Володарский
Пришелец из бездны - Alien Terminator [by Edich2].avi
Format : AVI
Format/Info : Audio Video Interleave
File size : 1.43 GiB
Duration : 1h 22mn
Overall bit rate : 2 495 Kbps
Movie name : Пришелец из бездны - Alien Terminator [by Edich2]
Director : Rip by Edich2
Writing application : VirtualDubMod 1.5.10.2 (build 2540/release)
Comment : RuTracker.org
Video
ID : 0
Format : MPEG-4 Visual
Format profile : Advanced Simple@L5
Format settings, BVOP : 2
Format settings, QPel : No
Format settings, GMC : No warppoints
Format settings, Matrix : Custom
Codec ID : XVID
Codec ID/Hint : XviD
Duration : 1h 22mn
Bit rate : 1 900 Kbps
Width : 640 pixels
Height : 480 pixels
Display aspect ratio : 4:3
Frame rate : 23.976 fps
Color space : YUV
Chroma subsampling : 4:2:0
Bit depth : 8 bits
Scan type : Progressive
Compression mode : Lossy
Bits/(Pixel*Frame) : 0.258
Stream size : 1.09 GiB (76%)
Writing library : XviD 1.2.1 (UTC 2008-12-04)
Audio #1
ID : 1
Format : AC-3
Format/Info : Audio Coding 3
Mode extension : CM (complete main)
Format settings, Endianness : Big
Codec ID : 2000
Duration : 1h 22mn
Bit rate mode : Constant
Bit rate : 192 Kbps
Channel count : 2 channels
Channel positions : Front: L R
Sampling rate : 48.0 KHz
Bit depth : 16 bits
Compression mode : Lossy
Delay relative to video : 8s 600ms
Stream size : 113 MiB (8%)
Alignment : Split accross interleaves
Interleave, duration : 42 ms (1.00 video frame)
Interleave, preload duration : 500 ms
Audio #2
ID : 2
Format : AC-3
Format/Info : Audio Coding 3
Mode extension : CM (complete main)
Format settings, Endianness : Big
Codec ID : 2000
Duration : 1h 22mn
Bit rate mode : Constant
Bit rate : 192 Kbps
Channel count : 2 channels
Channel positions : Front: L R
Sampling rate : 48.0 KHz
Bit depth : 16 bits
Compression mode : Lossy
Delay relative to video : 8s 600ms
Stream size : 113 MiB (8%)
Alignment : Split accross interleaves
Interleave, duration : 42 ms (1.00 video frame)
Interleave, preload duration : 500 ms
Audio #3
ID : 3
Format : AC-3
Format/Info : Audio Coding 3
Mode extension : CM (complete main)
Format settings, Endianness : Big
Codec ID : 2000
Duration : 1h 22mn
Bit rate mode : Constant
Bit rate : 192 Kbps
Channel count : 2 channels
Channel positions : Front: L R
Sampling rate : 48.0 KHz
Bit depth : 16 bits
Compression mode : Lossy
Delay relative to video : 8s 600ms
Stream size : 113 MiB (8%)
Alignment : Split accross interleaves
Interleave, duration : 42 ms (1.00 video frame)
Interleave, preload duration : 500 ms



Скачать Инопланетянин.-.терминатор.Враждебный.терминатор.Пришелец.из.бездны.Alien.Terminator.(Дэйв.Пэйн).[1995.ужасы.фантастика.DVDRip].[DVO.(Лицензия)].+.[AVO.(Алексеев)].+.[AVO.(Володарский)].torrent без регистрации
Золото ЗОЛОТАЯ РАЗДАЧА! СКАЧАННОЕ НЕ ЗАСЧИТЫВАЕТСЯ! Золото
Дата: Зарегистрирован   [ Тип: внутренний ] Как тут cкачать?
MAGNET ссылка
MAGNET ссылка


Скачать .torrent

15 KB

Статус: проверено DHT
Скачан: торрент - 135 раз, раздача полностью - 5 раз
Размер: 1,43 GB
Оценка:  - (Голосов: 0)
Поблагодарили: 1
Поделиться ссылкой на эту раздачу с друзьями:
В контактеFacebookОдноклассникиTwitterLivejournalМой МирLiveinternet
 

 
Показать сообщения:    


Вы не можете начинать темы
Вы не можете отвечать на сообщения
Вы не можете редактировать свои сообщения
Вы не можете удалять свои сообщения
Вы не можете голосовать в опросах
Вы не можете прикреплять файлы к сообщениям
Вы можете скачивать файлы