Loading...
Error

Скачать Матрица / The Matrix (Энди Вачовски, Лана Вачовски) [1999, фантастика, боевик, DVB] [Full Screen] [(RUS) Dub (Лицензия)] + [(UKR) MVO (ICTV)] торрент без регистрации

 
Статистика раздачи
Размер:  2,68 GB   |    Скачан:  179 раз
Сидов:  1  [  0 KB/s  ]  
 
Автор Сообщение

Marsianka

[] 

Матрица / The Matrix [Full Screen]


Страна: США, Австралия
Жанр: фантастика, боевик
Год выпуска: 1999
Продолжительность: 02:04:02
Перевод: Русский Профессиональный (дублированный) Лицензия
Перевод 2: Украинский Профессиональный (многоголосый закадровый) ICTV
Cубтитры: нет
Оригинальная аудиодорожка: нет
Режиссер: Энди Вачовски, Лана Вачовски / Andy Wachowski, Lana Wachowski
В ролях: Киану Ривз, Лоуренс Фишберн, Кэрри-Энн Мосс, Глория Фостер, Хьюго Уивинг, Джо Пантолиано, Маркус Чонг, Пол Годдард, Роберт Тэйлор, Джулиэн Араханга, Мэтт Доран, Белинда МакКлори, Энтони Рэй Паркер, Дэвид Эстон, Марк Грэй, Ада Никодему, Роуэн Уитт, Эленор Уитт, Билл Янг, Фиона Джонсон, Стив Додд, Лоуренс Вудворд, Бернард Леджер, Крис Скотт
Описание: Жизнь Томаса Андерсона разделена на две части: днем он работает программистом в крупной компании, а в свободное время бороздит сетевое пространство, где известен под именем Нео. Если днем для него существуют условности, то ночью он - хакер с безграничными возможностями. Но наступит день, когда ему откроется страшная правда: все, что он знал и видел, - иллюзия. Наша реальность - это лишь цифровой код, и мир давно захвачен искусственным интеллектом, а люди порабощены всесильными Машинами. Нео должен выбрать: свобода разума и жестокая борьба за будущее человечества или сладкий обман Матрицы.


Качество видео: DVB с ICTV
Формат видео: MKV
Видео: MPEG2 Video 720x576 (4:3) 25.00fps 2648 Kbps
Аудио:
Русский Дубляж: MPEG Audio 48000Hz stereo 256kbps
Украинский Многоголосый закадровый: MPEG Audio 48000Hz stereo 128kbps

СЭМПЛ
General
Unique ID : 245252176395459139738260433077517111213 (0xB881D9DE0F57160A9285001723534FAD)
Complete name : E:\Movies\Matrix_RUS(DUB)_UKR(MVO)_FULL_SCREEN_DVB_ICTV.mkv
Format : Matroska
Format version : Version 4 / Version 2
File size : 2.68 GiB
Duration : 2h 4mn
Overall bit rate : 3 093 Kbps
Encoded date : UTC 2014-03-01 12:35:58
Writing application : mkvmerge v6.3.0 ('You can't stop me!') built on Jun 27 2013 22:06:07
Writing library : libebml v1.3.0 + libmatroska v1.4.0
Video
ID : 1
Format : MPEG Video
Format version : Version 2
Format profile : Main@Main
Format settings, BVOP : No
Format settings, Matrix : Custom
Codec ID : V_MPEG2
Codec ID/Info : MPEG 1 or 2 Video
Duration : 2h 4mn
Bit rate mode : Variable
Bit rate : 2 648 Kbps
Maximum bit rate : 15.0 Mbps
Width : 720 pixels
Height : 576 pixels
Display aspect ratio : 4:3
Frame rate : 25.000 fps
Standard : PAL
Color space : YUV
Chroma subsampling : 4:2:0
Bit depth : 8 bits
Scan type : Interlaced
Scan order : Top Field First
Compression mode : Lossy
Bits/(Pixel*Frame) : 0.255
Stream size : 2.29 GiB (86%)
Title : Matrix DVB 720x576 @ICTV FULL Screen
Language : Russian
Audio #1
ID : 2
Format : MPEG Audio
Format version : Version 1
Format profile : Layer 2
Codec ID : A_MPEG/L2
Codec ID/Hint : MP2
Duration : 2h 4mn
Bit rate mode : Constant
Bit rate : 256 Kbps
Channel(s) : 2 channels
Sampling rate : 48.0 KHz
Compression mode : Lossy
Stream size : 227 MiB (8%)
Title : RUS DUB DD2.0 Stereo @256kbps
Language : Russian
Audio #2
ID : 3
Format : MPEG Audio
Format version : Version 1
Format profile : Layer 2
Codec ID : A_MPEG/L2
Codec ID/Hint : MP2
Duration : 2h 4mn
Bit rate mode : Constant
Bit rate : 128 Kbps
Channel(s) : 2 channels
Sampling rate : 48.0 KHz
Compression mode : Lossy
Delay relative to video : 19ms
Stream size : 114 MiB (4%)
Title : UKR MVO DD2.0 (MONO) @128kbps
Language : Ukrainian



Скачать Матрица.The.Matrix.(Энди.Вачовски.Лана.Вачовски).[1999.фантастика.боевик.DVB].[Full.Screen].[(RUS).Dub.(Лицензия)].+.[(UKR).MVO.(ICTV)].torrent без регистрации
Золото ЗОЛОТАЯ РАЗДАЧА! СКАЧАННОЕ НЕ ЗАСЧИТЫВАЕТСЯ! Золото
Дата: Зарегистрирован   [ Тип: внутренний ] Как тут cкачать?
MAGNET ссылка
MAGNET ссылка


Скачать .torrent

14 KB

Статус: проверено DHT
Скачан: торрент - 179 раз, раздача полностью - 256 раз
Размер: 2,68 GB
Оценка:  - (Голосов: 0)
Поблагодарили: 1
Поделиться ссылкой на эту раздачу с друзьями:
В контактеFacebookОдноклассникиTwitterLivejournalМой МирLiveinternet
 

 
Показать сообщения:    


Вы не можете начинать темы
Вы не можете отвечать на сообщения
Вы не можете редактировать свои сообщения
Вы не можете удалять свои сообщения
Вы не можете голосовать в опросах
Вы не можете прикреплять файлы к сообщениям
Вы можете скачивать файлы