Loading...
Error

Скачать Шакал / The Jackal (Майкл Кейтон-Джонс / Michael Caton-Jones) [1997, боевик, триллер, криминал, приключения, BDRip-AVC] [AVO] (Кашкин) + [DVO] (ПремьерВидео) торрент без регистрации

 
Статистика раздачи
Размер:  1,46 GB   |    Скачан:  117 раз
Сидов:  1  [  0 KB/s  ]  
 
Автор Сообщение

leon030982

[] 

Шакал / The Jackal


Год выпуска: 1997
Страна: США, Германия, Франция, Япония, Великобритания
Жанр: боевик, триллер, криминал, приключения
Продолжительность: 02:04:29
Перевод #1: Авторский (одноголосный) [А.Кашкин (Первомайский)]
Перевод #2: Профессиональный (двухголосый) [Премьер Видео Фильм]
Cубтитры: русские, английские (вшитые, отключаемые)

Режиссер: Майкл Кейтон-Джонс / Michael Caton-Jones

В ролях: Брюс Уиллис, Ричард Гир, Сидни Пуатье, Дайан Венора, Матильда Мэй, Дж.К. Симмонс, Ричард Лайнбэк, Джон Каннингэм, Джек Блэк, Тесс Харпер, Лесли Филлипс, Стивен Спинелла и др.

Описание:
«Шакал» - это кличка. Под ней скрывается один из самых неуловимых преступников международного масштаба, наемный киллер, выполняющий самые сложные задания тех «работодателей», кто способен заплатить немалые деньги. После того, как в московском ночном клубе прошла совместная операция американских спецслужб и российской милиции, был убит один из главарей русской мафии, брат покойного обратился к Шакалу и сделал «заказ».
Информация об этом просочилась в ФБР. Стало ясно, что целью киллера является кто-то «на самом верху» Белого дома. Чтобы остановить Шакала, американцы выпускают из тюрьмы ирландского террориста Деклана Малкуина, у которого свои счеты с Шакалом и который - единственный! - знает наемного убийцу в лицо…




Качество: BDRip-AVC [Blu-ray Remux]
Формат: MKV
Видео кодек: H.264
Аудио кодек: AC3
Видео: H.264, 720x304 (2.35:1), 23.976 fps, 1290 Kbps, 0.246 Bits/(Pixel*Frame)
Аудио #1: AC3, 48 KHz, 192 Kbps, 2 channels [AVO]
Аудио #2: AC3, 48 KHz, 192 Kbps, 2 channels [DVO]
General
Unique ID : 245406165638302703990886973582155360611 (0xB89F821F8E5500A4871E332B159EA963)
Complete name : E:\INTERNET\Shakal.1997.BDRip-AVC.[AVO](Kashkin)+[DVO](Premjer).mkv
Format : Matroska
File size : 1.46 GiB
Duration : 2h 4mn
Overall bit rate : 1 676 Kbps
Encoded date : UTC 2014-05-19 18:01:17
Writing application : mkvmerge v6.1.0 ('Old Devil') built on Mar 4 2013 09:10:42
Writing library : libebml v1.3.0 + libmatroska v1.4.0

Video
ID : 1
Format : AVC
Format/Info : Advanced Video Codec
Format profile : High@L4.1
Format settings, CABAC : Yes
Format settings, ReFrames : 11 frames
Format settings, GOP : M=1, N=52
Codec ID : V_MPEG4/ISO/AVC
Duration : 2h 4mn
Bit rate : 1 290 Kbps
Width : 720 pixels
Height : 304 pixels
Display aspect ratio : 2.35:1
Frame rate : 23.976 fps
Color space : YUV
Chroma subsampling : 4:2:0
Bit depth : 8 bits
Scan type : Progressive
Bits/(Pixel*Frame) : 0.246
Stream size : 1.09 GiB (75%)
Title : Øàêàë (1997)
Writing library : x264 core 125 r2208 d9d2288
Encoding settings : cabac=1 / ref=11 / deblock=1:-1:-1 / analyse=0x3:0x113 / me=umh / subme=9 / psy=1 / psy_rd=1.00:0.20 / mixed_ref=1 / me_range=32 / chroma_me=1 / trellis=1 / 8x8dct=1 / cqm=0 / deadzone=21,11 / fast_pskip=0 / chroma_qp_offset=-3 / threads=3 / lookahead_threads=1 / sliced_threads=0 / nr=0 / decimate=1 / interlaced=0 / bluray_compat=0 / constrained_intra=0 / bframes=8 / b_pyramid=2 / b_adapt=1 / b_bias=0 / direct=3 / weightb=1 / open_gop=0 / weightp=2 / keyint=240 / keyint_min=23 / scenecut=40 / intra_refresh=0 / rc_lookahead=60 / rc=2pass / mbtree=1 / bitrate=1290 / ratetol=1.0 / qcomp=0.60 / qpmin=0 / qpmax=69 / qpstep=4 / cplxblur=20.0 / qblur=0.5 / ip_ratio=1.40 / aq=1:1.00
Language : Russian

Audio #1
ID : 2
Format : AC-3
Format/Info : Audio Coding 3
Mode extension : CM (complete main)
Codec ID : A_AC3
Duration : 2h 4mn
Bit rate mode : Constant
Bit rate : 192 Kbps
Channel(s) : 2 channels
Channel positions : Front: L R
Sampling rate : 48.0 KHz
Bit depth : 16 bits
Compression mode : Lossy
Stream size : 171 MiB (11%)
Title : AVO_KASHKIN
Language : Russian

Audio #2
ID : 3
Format : AC-3
Format/Info : Audio Coding 3
Mode extension : CM (complete main)
Codec ID : A_AC3
Duration : 2h 4mn
Bit rate mode : Constant
Bit rate : 192 Kbps
Channel(s) : 2 channels
Channel positions : Front: L R
Sampling rate : 48.0 KHz
Bit depth : 16 bits
Compression mode : Lossy
Stream size : 171 MiB (11%)
Title : DVO [PREMJER VIDEO]
Language : Russian

Text #1
ID : 4
Format : UTF-8
Codec ID : S_TEXT/UTF8
Codec ID/Info : UTF-8 Plain Text
Title : Ðóññêèå
Language : Russian

Text #2
ID : 5
Format : UTF-8
Codec ID : S_TEXT/UTF8
Codec ID/Info : UTF-8 Plain Text
Title : Àíãëèéñêèå
Language : English



Скачать Шакал.The.Jackal.(Майкл.Кейтон-Джонс.Michael.Caton-Jones).[1997.боевик.триллер.криминал.приключения.BDRip-AVC].[AVO].(Кашкин).+.[DVO].(ПремьерВидео).torrent без регистрации
Золото ЗОЛОТАЯ РАЗДАЧА! СКАЧАННОЕ НЕ ЗАСЧИТЫВАЕТСЯ! Золото
Дата: Зарегистрирован   [ Тип: внутренний ] Как тут cкачать?
MAGNET ссылка
MAGNET ссылка


Скачать .torrent

15 KB

Статус: проверено DHT
Скачан: торрент - 117 раз, раздача полностью - 33 раз
Размер: 1,46 GB
Оценка:  5 (Голосов: 1)
Поблагодарили: 1
Поделиться ссылкой на эту раздачу с друзьями:
В контактеFacebookОдноклассникиTwitterLivejournalМой МирLiveinternet
 

 
Показать сообщения:    


Вы не можете начинать темы
Вы не можете отвечать на сообщения
Вы не можете редактировать свои сообщения
Вы не можете удалять свои сообщения
Вы не можете голосовать в опросах
Вы не можете прикреплять файлы к сообщениям
Вы можете скачивать файлы