Loading...
Error

Скачать Мужчина и женщина: способ применения / Hommes, femmes, mode d'emploi (Клод Лелуш) [1996, драма, комедия, DVDRip-AVC] [MVO] торрент без регистрации

 
Статистика раздачи
Размер:  2,05 GB   |    Скачан:  101 раз
Сидов:  1  [  0 KB/s  ]  
 
Автор Сообщение

Marsianka

[] 

Мужчина и женщина: способ применения / Hommes, femmes, mode d'emploi
Страна: Франция
Жанр: драма, комедия
Год выпуска: 1996
Продолжительность: 01:57:39
Перевод: Профессиональный (многоголосый закадровый)
Cубтитры: нет
Режиссер: Клод Лелуш / Claude Lelouch
В ролях: Фабрис Лукини, Бернард Тапи, Алессандра Мартинес, Пьер Ардити, Тикки Ольгадо, Офелия Винтер, Патрик Хассон, Саломе Лелуш, Кристоф Эмон, Уильям Леймержи
Описание: Эта история повествует о двух мужчинах, которые, казалось бы, никогда не должны были встретиться. У первого есть все, но ему хочется еще большего. У второго есть очень мало, но это малое ему очень дорого. Конечно, между ними рождается дружба, настолько нелепая, насколько и крепкая, как это часто бывает в книгах, кино и в жизни. Один думает: «Друзья отнимают время», другой: «Как хорошо иметь друзей». А женщины? Где же здесь женщины? В самом центре повествования, рядом с мужчинами… такие же необходимые, как воздух, которым они дышат, и такие же невыносимые, как педаль тормоза, когда ногой ищешь газ. «Супружество убивает любовь», — думает первый, тогда как для второго: «Любовь — это ветрянка: чем позже ее подхватишь, тем тяжелее она проходит»...

Венецианский кинофестиваль, 1996 год
Победитель: Малый золотой лев
Номинации: Золотой лев
Качество видео: DVDRip-AVC (источник DVD9)
Формат видео: MKV
Видео: h264 AVC, 704х432@1007x432, 2273 кбит/с, 25 fps
Аудио: AC3, 224 кбит/с, 16 бит, 2 ch, 48 КГц

Сэмпл
Общее
Уникальный идентификатор : 231405581379976465990883241472543033313 (0xAE17180668DE6DA58335BDA1CB2A07E1)
Полное имя : D:\Hommes.femmes.mode.demploi_1996.DVDRipAVC.mkv
Формат : Matroska
Версия формата : Version 2
Размер файла : 2,05 Гбайт
Продолжительность : 1 ч. 57 м.
Общий поток : 2499 Кбит/сек
Дата кодирования : UTC 2014-02-27 17:54:12
Программа кодирования : mkvmerge v6.1.0 ('Old Devil') built on Mar 4 2013 09:10:42
Библиотека кодирования : libebml v1.3.0 + libmatroska v1.4.0
Видео
Идентификатор : 1
Формат : AVC
Формат/Информация : Advanced Video Codec
Профиль формата : High@L4.1
Параметр CABAC формата : Да
Параметр ReFrames формата : 7 кадров
Идентификатор кодека : V_MPEG4/ISO/AVC
Продолжительность : 1 ч. 57 м.
Битрейт : 2273 Кбит/сек
Ширина : 704 пикселя
Высота : 432 пикселя
Соотношение сторон : 2,35:1
Режим частоты кадров : Постоянный
Частота кадров : 25,000 кадров/сек
Цветовое пространство : YUV
Субдискретизация насыщенности : 4:2:0
Битовая глубина : 8 бит
Тип развёртки : Прогрессивная
Бит/(Пиксели*Кадры) : 0.299
Размер потока : 1,83 Гбайт (89%)
Библиотека кодирования : x264 core 130 r2273 b3065e6
Настройки программы : cabac=1 / ref=7 / deblock=1:-2:-1 / analyse=0x3:0x113 / me=umh / subme=10 / psy=1 / psy_rd=1.00:0.20 / mixed_ref=1 / me_range=32 / chroma_me=1 / trellis=2 / 8x8dct=1 / cqm=0 / deadzone=21,11 / fast_pskip=0 / chroma_qp_offset=-3 / threads=12 / lookahead_threads=1 / sliced_threads=0 / nr=0 / decimate=0 / interlaced=0 / bluray_compat=0 / constrained_intra=0 / bframes=3 / b_pyramid=2 / b_adapt=2 / b_bias=0 / direct=3 / weightb=1 / open_gop=0 / weightp=2 / keyint=250 / keyint_min=25 / scenecut=40 / intra_refresh=0 / rc_lookahead=60 / rc=2pass / mbtree=1 / bitrate=2273 / ratetol=1.0 / qcomp=0.60 / qpmin=0 / qpmax=69 / qpstep=4 / cplxblur=20.0 / qblur=0.5 / vbv_maxrate=50000 / vbv_bufsize=50000 / nal_hrd=none / ip_ratio=1.40 / aq=1:1.00
Default : Да
Forced : Нет
Аудио
Идентификатор : 2
Формат : AC-3
Формат/Информация : Audio Coding 3
Расширение режима : CM (complete main)
Параметр Endianness формата : Big
Идентификатор кодека : A_AC3
Продолжительность : 1 ч. 57 м.
Вид битрейта : Постоянный
Битрейт : 224 Кбит/сек
Каналы : 2 канала
Расположение каналов : Front: L R
Частота : 48,0 КГц
Битовая глубина : 16 бит
Метод сжатия : С потерями
Размер потока : 188 Мбайт (9%)
Default : Да
Forced : Нет



Скачать Мужчина.и.женщина.способ.применения.Hommes.femmes.mode.d'emploi.(Клод.Лелуш).[1996.драма.комедия.DVDRip-AVC].[MVO].torrent без регистрации
Золото ЗОЛОТАЯ РАЗДАЧА! СКАЧАННОЕ НЕ ЗАСЧИТЫВАЕТСЯ! Золото
Дата: Зарегистрирован   [ Тип: внутренний ] Как тут cкачать?
MAGNET ссылка
MAGNET ссылка


Скачать .torrent

11 KB

Статус: проверено DHT
Скачан: торрент - 101 раз, раздача полностью - 10 раз
Размер: 2,05 GB
Оценка:  - (Голосов: 0)
Поблагодарили: 1
Поделиться ссылкой на эту раздачу с друзьями:
В контактеFacebookОдноклассникиTwitterLivejournalМой МирLiveinternet
 

 
Показать сообщения:    


Вы не можете начинать темы
Вы не можете отвечать на сообщения
Вы не можете редактировать свои сообщения
Вы не можете удалять свои сообщения
Вы не можете голосовать в опросах
Вы не можете прикреплять файлы к сообщениям
Вы можете скачивать файлы