Loading...
Error

Скачать Эй, это же Эстер Блюбургер / Hey Hey It's Esther Blueburger (Кэти Рэндолл) [2008, драма, комедия, DVDRip] [VO] + [Sub (Rus)] + [Original (Eng)] торрент без регистрации

 
Статистика раздачи
Размер:  838 MB   |    Скачан:  95 раз
Сидов:  1  [  0 KB/s  ]  
 
Автор Сообщение

Marsianka

[] 

Эй, это же Эстер Блюбургер / Hey Hey It's Esther Blueburger
Страна: Австралия
Жанр: Драма, комедия
Год выпуска: 2008
Продолжительность: 01:38:24
Перевод: Одноголосый закадровый
Cубтитры: русские
Оригинальная аудиодорожка: английский
Режиссер: Кэти Рэндолл / Cathy Randall
В ролях: Даниэль Катанзарити, Киша Касл-Хьюз, Тони Коллетт, Эсси Дэвис, Рассел Дикстра, Кристиан Байерс и другие
Описание: Трогательная история о перипетиях взросления, рассказанная ярко, динамично и с юмором.
13-летняя Эстер Блюбургер учится в небольшой частной школе, где она постоянно является объектом насмешек со стороны одноклассниц. Её необыкновенная история начинается, когда она сбегает с вечеринки празднования Бар-Мицвы и находит себе друга в лице Санни, которая учится в соседней общеобразовательной школе. Для воспитанной в консервативной среде Эстер клёвая и уверенная в себе Санни кажется просто идеалом для подражания.
С помощью новой подруги Эстер оставляет позади свою опостылевшую обыденную жизнь и абсолютно ненормальную еврейскую семью, проводя всё больше и больше времени с Санни и её беззаботной матерью-одиночкой Мэри. При их содействии и в тайне от родителей Эстер меняет школу, появляясь в школе Санни под видом шведской студентки по обмену.



Качество видео: DVDRip
Формат видео: AVI
Видео: 608x336 (1.81:1), 25 fps, XviD MPEG-4 ~852 kbps avg, 0.17 bit/pixel

Сэмпл
Аудио 1: 48 kHz, MPEG Layer 3, 2 ch, ~192.00 kbps avg(Русский)
Аудио 2: 48 kHz, MPEG Layer 3, 2 ch, ~126.99 kbps avg(Английский)
Формат субтитров: softsub (SRT)
Доп. информация о субтитрах: Русские внешние (kitmur)
Общее
Полное имя : D:\Мои видеозаписи\Эй, это же Эстер Блюбургер\Эй, это же Эстер Блюбургер.avi
Формат : AVI
Формат/Информация : Audio Video Interleave
Размер файла : 838 Мбайт
Продолжительность : 1 ч. 38 м.
Режим общего битрейта : Переменный
Общий поток : 1191 Кбит/сек
Программа кодирования : VirtualDubModRus 1.5.10.2 (build 2542/release)
Библиотека кодирования : VirtualDubMod build 2542/release
Видео
Идентификатор : 0
Формат : MPEG-4 Visual
Профиль формата : Advanced Simple@L5
Параметр BVOP формата : 2
Параметр QPel формата : Нет
Параметр GMC формата : Без точки перехода
Параметр матрицы формата : Default (H.263)
Режим смешивания : Сжатый битовый поток
Идентификатор кодека : XVID
Идентификатор кодека/Подсказка : XviD
Продолжительность : 1 ч. 38 м.
Битрейт : 854 Кбит/сек
Ширина : 608 пикселей
Высота : 336 пикселей
Соотношение сторон : 16:9
Частота кадров : 25,000 кадров/сек
Цветовое пространство : YUV
Субдискретизация насыщенности : 4:2:0
Битовая глубина : 8 бит
Тип развёртки : Прогрессивная
Метод сжатия : С потерями
Бит/(Пиксели*Кадры) : 0.167
Размер потока : 601 Мбайт (72%)
Библиотека кодирования : XviD 1.1.2 (UTC 2006-11-01)
Аудио #1
Идентификатор : 1
Формат : MPEG Audio
Версия формата : Version 1
Профиль формата : Layer 3
Режим : Joint stereo
Расширение режима : MS Stereo
Идентификатор кодека : 55
Идентификатор кодека/Подсказка : MP3
Продолжительность : 1 ч. 38 м.
Вид битрейта : Постоянный
Битрейт : 192 Кбит/сек
Каналы : 2 канала
Частота : 48,0 КГц
Метод сжатия : С потерями
Размер потока : 135 Мбайт (16%)
Выравнивание : Соединение по промежуткам
Продолжительность промежутка : 40 мс. (1,00 видеокадр)
Время предзагрузки промежутка : 504 мс.
Библиотека кодирования : LAME3.98
Аудио #2
Идентификатор : 2
Формат : MPEG Audio
Версия формата : Version 1
Профиль формата : Layer 3
Режим : Joint stereo
Расширение режима : MS Stereo
Идентификатор кодека : 55
Идентификатор кодека/Подсказка : MP3
Продолжительность : 1 ч. 38 м.
Вид битрейта : Переменный
Битрейт : 127 Кбит/сек
Номинальный битрейт : 135 Кбит/сек
Каналы : 2 канала
Частота : 48,0 КГц
Метод сжатия : С потерями
Размер потока : 89,4 Мбайт (11%)
Выравнивание : Соединение по промежуткам
Продолжительность промежутка : 24 мс. (0,60 видеокадр)
Время предзагрузки промежутка : 498 мс.
Библиотека кодирования : LAME3.98b
Настройки программы : -m j -V 4 -q 3 -lowpass 17 --abr 135



Скачать Эй.это.же.Эстер.Блюбургер.Hey.Hey.It's.Esther.Blueburger.(Кэти.Рэндолл).[2008.драма.комедия.DVDRip].[VO].+.[Sub.(Rus)].+.[Original.(Eng)].torrent без регистрации
Золото ЗОЛОТАЯ РАЗДАЧА! СКАЧАННОЕ НЕ ЗАСЧИТЫВАЕТСЯ! Золото
Дата: Зарегистрирован   [ Тип: внутренний ] Как тут cкачать?
MAGNET ссылка
MAGNET ссылка


Скачать .torrent

17 KB

Статус: проверено DHT
Скачан: торрент - 95 раз, раздача полностью - 0 раз
Размер: 838 MB
Оценка:  - (Голосов: 0)
Поблагодарили: 0
Поделиться ссылкой на эту раздачу с друзьями:
В контактеFacebookОдноклассникиTwitterLivejournalМой МирLiveinternet
 

 
Показать сообщения:    


Вы не можете начинать темы
Вы не можете отвечать на сообщения
Вы не можете редактировать свои сообщения
Вы не можете удалять свои сообщения
Вы не можете голосовать в опросах
Вы не можете прикреплять файлы к сообщениям
Вы можете скачивать файлы