Loading...
Error

Скачать Тяжелый случай / Hard Luck (Марио Ван Пиблз) [2006, триллер, драма, криминал, BDRip] [MVO] + [Original (Eng)] торрент без регистрации

 
Статистика раздачи
Размер:  2,18 GB   |    Скачан:  102 раза
Сидов:  1  [  0 KB/s  ]  
 
Автор Сообщение

Marsianka

[] 

Тяжелый случай /
Hard Luck
Страна: США
Жанр: триллер, драма, криминал
Год выпуска: 2006
Продолжительность: 01:41:21
Перевод: Профессиональный (многоголосый закадровый)
Cубтитры: нет
Оригинальная аудиодорожка: английский
Режиссер: Марио Ван Пиблз / Mario Van Peebles
В ролях: Уэсли Снайпс, Джеки Киньонес, Сибилл Шепард, Джеймс Хироюки Лиао, Обри Доллар, Кевин Томс, Адриан Вашингтон, Ной Флайсс, Билл Коббс, Кевин Чэпмен
Описание: Торговец наркотиками решает завязать со своим преступным прошлым и зажить порядочной жизнью, став честным и всеми уважаемым гражданином. Но все его благие намерения идут прахом, когда он соглашается прийти на день рождения своего приятеля-гангстера.
Вновь оказавшись в самом центре разборок между уголовными преступниками и продажными полицейскими, он бежит с вечеринки, прихватив с собой красавицу-танцовщицу и чемоданчик, доверху набитый долларами. Спасаясь от преследования, он мчится навстречу своей судьбе, уготовившей ему невероятные приключения...

Качество видео: BDRip (Bluray Disc - Bluebird)
Формат видео: AVI
Видео: XviD, 720x304, 2166 Kbps, 23.976 fps
Аудио 1: AC3, 48000 Hz, 448 Kbps, 5.1 ch - RUS
Аудио 2: AC3, 48000 Hz, 448 Kbps, 5.1 ch - ENG
Субтитры: русские, отдельным файлом


Format : AVI
Format/Info : Audio Video Interleave
Format profile : OpenDML
File size : 2.18 GiB
Duration : 1h 41mn
Overall bit rate : 3 083 Kbps
Movie name : Hard Luck (2006)
Genre : Action, Drama
Writing application : VirtualDubMod 1.5.10.2 (build 2540/release)
Writing library : VirtualDubMod build 2540/release
Copyright : RG Torrents.ru
Video
ID : 0
Format : MPEG-4 Visual
Format profile : Advanced Simple@L5
Format settings, BVOP : 1
Format settings, QPel : No
Format settings, GMC : No warppoints
Format settings, Matrix : Custom
Codec ID : XVID
Codec ID/Hint : XviD
Duration : 1h 41mn
Bit rate : 2 169 Kbps
Width : 720 pixels
Height : 304 pixels
Display aspect ratio : 2.35:1
Frame rate : 23.976 fps
Color space : YUV
Chroma subsampling : 4:2:0
Bit depth : 8 bits
Scan type : Progressive
Compression mode : Lossy
Bits/(Pixel*Frame) : 0.413
Stream size : 1.54 GiB (70%)
Writing library : XviD 73
Audio #1
ID : 1
Format : AC-3
Format/Info : Audio Coding 3
Mode extension : CM (complete main)
Format settings, Endianness : Big
Codec ID : 2000
Duration : 1h 41mn
Bit rate mode : Constant
Bit rate : 448 Kbps
Channel(s) : 6 channels
Channel positions : Front: L C R, Side: L R, LFE
Sampling rate : 48.0 KHz
Bit depth : 16 bits
Compression mode : Lossy
Stream size : 325 MiB (15%)
Alignment : Split accross interleaves
Interleave, duration : 42 ms (1.00 video frame)
Interleave, preload duration : 500 ms
Title : RUS
Audio #2
ID : 2
Format : AC-3
Format/Info : Audio Coding 3
Mode extension : CM (complete main)
Format settings, Endianness : Big
Codec ID : 2000
Duration : 1h 41mn
Bit rate mode : Constant
Bit rate : 448 Kbps
Channel(s) : 6 channels
Channel positions : Front: L C R, Side: L R, LFE
Sampling rate : 48.0 KHz
Bit depth : 16 bits
Compression mode : Lossy
Stream size : 325 MiB (15%)
Alignment : Split accross interleaves
Interleave, duration : 42 ms (1.00 video frame)
Interleave, preload duration : 500 ms
Title : ENG



Скачать Тяжелый.случай.Hard.Luck.(Марио.Ван.Пиблз).[2006.триллер.драма.криминал.BDRip].[MVO].+.[Original.(Eng)].torrent без регистрации
Золото ЗОЛОТАЯ РАЗДАЧА! СКАЧАННОЕ НЕ ЗАСЧИТЫВАЕТСЯ! Золото
Дата: Зарегистрирован   [ Тип: внутренний ] Как тут cкачать?
MAGNET ссылка
MAGNET ссылка


Скачать .torrent

11 KB

Статус: проверено DHT
Скачан: торрент - 102 раз, раздача полностью - 24 раз
Размер: 2,18 GB
Оценка:  - (Голосов: 0)
Поблагодарили: 0
Поделиться ссылкой на эту раздачу с друзьями:
В контактеFacebookОдноклассникиTwitterLivejournalМой МирLiveinternet
 

 
Показать сообщения:    


Вы не можете начинать темы
Вы не можете отвечать на сообщения
Вы не можете редактировать свои сообщения
Вы не можете удалять свои сообщения
Вы не можете голосовать в опросах
Вы не можете прикреплять файлы к сообщениям
Вы можете скачивать файлы