Loading...
Error

Скачать Дорога к славе / Casi Divas (Иса Лопез) [2008, мюзикл, комедия, DVDRip] [MVO (ТВ3)] + [Original (Spa)] торрент без регистрации

 
Статистика раздачи
Размер:  1,66 GB   |    Скачан:  109 раз

Полного источника не было: 21 минута

 
Автор Сообщение

Marsianka

[] 

Дорога к славе / Casi Divas
Страна: Мексика
Жанр: мюзикл, комедия
Год выпуска: 2008
Продолжительность: 01:43:00
Перевод: Профессиональный (многоголосый закадровый) ТВ3
Cубтитры: нет
Оригинальная аудиодорожка: испанский
Режиссер: Иса Лопез / Issa López
В ролях: Патрисия Льяка, Хулио Брачо, Майя Сапата, Анна Лаевская, Даниэла Шмидт, Диана Гарсиа, Моника Уарте, Дарио Т. Пие, Дэниэл Фигуроа, Ианис Герерро
Описание: Четыре красавицы, полные амбиций. Девушки из совершенно разных уголков Мексики и разных социальных слоев. Они хотят стать звездами экрана, но дорога к славе полна преград. Прежде, чем пробиться наверх, начинающим звездочкам предстоит противостоять могущественному и любвеобильному продюсеру…




Качество видео: DVDRip
Формат видео: AVI
Видео: MPEG4, XviD, 672x352 (1.909), 25.000 fps, 1 664 Kbps (0.281 bit/pixel)
Аудио: AC-3, 48.0 KHz, 2 ch, 192 Kbps, CBR - русский
Аудио 2: AC-3, 48.0 KHz, 6 ch, 448 Kbps, CBR - испанский (отдельным файлом)
Общее
Полное имя : K:\Дорога к славе.avi
Формат : AVI
Формат/Информация : Audio Video Interleave
Размер файла : 1,34 Гбайт
Продолжительность : 1 ч. 43 м.
Общий поток : 1865 Кбит/сек
Название фильма : Дорога к славе / Casi Divas (2008)
Программа кодирования : VirtualDubMod 1.5.10.2 (build 2540/release)
Библиотека кодирования : VirtualDubMod build 2540/release
Видео
Идентификатор : 0
Формат : MPEG-4 Visual
Профиль формата : Advanced Simple@L5
Параметр BVOP формата : 2
Параметр QPel формата : Нет
Параметр GMC формата : Без точки перехода
Параметр матрицы формата : Default (MPEG)
Идентификатор кодека : XVID
Идентификатор кодека/Подсказка : XviD
Продолжительность : 1 ч. 43 м.
Битрейт : 1664 Кбит/сек
Ширина : 672 пикселя
Высота : 352 пикселя
Соотношение сторон : 1,909
Частота кадров : 25,000 кадров/сек
Цветовое пространство : YUV
Субдискретизация насыщенности : 4:2:0
Битовая глубина : 8 бит
Тип развёртки : Прогрессивная
Метод сжатия : С потерями
Бит/(Пиксели*Кадры) : 0.281
Размер потока : 1,20 Гбайт (89%)
Библиотека кодирования : XviD 1.1.2 (UTC 2006-11-01)
Аудио
Идентификатор : 1
Формат : AC-3
Формат/Информация : Audio Coding 3
Расширение режима : CM (complete main)
Параметр Endianness формата : Big
Идентификатор кодека : 2000
Продолжительность : 1 ч. 42 м.
Вид битрейта : Постоянный
Битрейт : 192 Кбит/сек
Каналы : 2 канала
Расположение каналов : Front: L R
Частота : 48,0 КГц
Битовая глубина : 16 бит
Метод сжатия : С потерями
Задержка видео : 500 мс.
Размер потока : 141 Мбайт (10%)
Выравнивание : Разделение по промежуткам
Продолжительность промежутка : 40 мс. (1,00 видеокадр)
Время предзагрузки промежутка : 500 мс.
Заголовок : Профессиональный (многоголосый закадровый) ТВ3



Скачать Дорога.к.славе.Casi.Divas.(Иса.Лопез).[2008.мюзикл.комедия.DVDRip].[MVO.(ТВ3)].+.[Original.(Spa)].torrent без регистрации
Золото ЗОЛОТАЯ РАЗДАЧА! СКАЧАННОЕ НЕ ЗАСЧИТЫВАЕТСЯ! Золото
Дата: Зарегистрирован   [ Тип: внутренний ] Как тут cкачать?
MAGNET ссылка
MAGNET ссылка


Скачать .torrent

17 KB

Статус: проверено DHT
Скачан: торрент - 109 раз, раздача полностью - 0 раз
Размер: 1,66 GB
Оценка:  - (Голосов: 0)
Поблагодарили: 0
Поделиться ссылкой на эту раздачу с друзьями:
В контактеFacebookОдноклассникиTwitterLivejournalМой МирLiveinternet
 

 
Показать сообщения:    


Вы не можете начинать темы
Вы не можете отвечать на сообщения
Вы не можете редактировать свои сообщения
Вы не можете удалять свои сообщения
Вы не можете голосовать в опросах
Вы не можете прикреплять файлы к сообщениям
Вы можете скачивать файлы