Loading...
Error

Скачать Христофор Колумб: История открытий / Christopher Columbus: The Discovery (Джон Глен) [1992, приключения, биография, история, HDRip] [MVO (ТРК Петербург 5 канал)] + [Original (Eng)] торрент без регистрации

 
Статистика раздачи
Размер:  1,45 GB   |    Скачан:  109 раз
Сидов:  1  [  0 KB/s  ]  
 
Автор Сообщение

Marsianka

[] 

Христофор Колумб: История открытий / Christopher Columbus: The Discovery
Страна: Великобритания, США, Испания
Жанр: Приключения, биография, история
Год выпуска: 1992
Продолжительность: 01:55:37
Перевод: Профессиональный (многоголосый закадровый) ТРК Петербург 5 канал
Текст читали: Максим Сергеев, Олег Куликович и др.
Cубтитры: нет
Оригинальная аудиодорожка: английский
Режиссер: Джон Глен / John Glen
В ролях: Жорж Коррафас, Бенисио Дель Торо, Кэтрин Зета-Джонс, Марлон Брандо, Том Селлек, Рэйчел Уорд, Роберт Дэви, Оливер Коттон, Матьё Каррьер, Мануэль де Блас, Питер Гиннесс, Найджел Терри, Ницан Шаррон, Хьюго Блик, Найджел Харрисон, Крис Хантер, Кристофер Чаплин, Майкл Готард, Клайв Арринделл, Ричард Кубисон
Описание: Фильм снят к 500-т летию открытия Америки. Генуэзский мореплаватель Христофор Колумб мечтает отыскать новый альтернативный маршрут в Индию, следуя по морю на запад, а не на восток. После неудавшейся попытки заинтересовать этим проектом португальского короля Жуана II, он обращается за помощью к испанским монархам — Изабелле и Фердинанду, и в конце концов добивается разрешения отплыть на поиски неизведанных земель во главе трех каравелл - "Санта-Мария", "Пинта" и "Нинья"...




Качество видео: HDRip
Источник: Hristofor.Kolumb.Istoriya.otkrytij.1992.x264.BDRip(720p)-Bikc.mkv
Формат видео: AVI
Видео: XviD build 50, 720x304 (2.35:1), 25.000 fps, 1400 kbps avg

Сэмпл
Аудио: Russian AC3 Dolby Digital, 48 kHz, 2/0 (L,R) ch, 192.00 kbps avg
Аудио 2: English AC3 Dolby Digital, 48 kHz, 2/0 (L,R) ch, 192.00 kbps avg
Complete name : F:\Christopher Columbus. The Discovery _1992\Christopher Columbus. The Discovery _1992.MVO.BDRip.avi
Format : AVI
Format/Info : Audio Video Interleave
File size : 1.45 GiB
Duration : 1h 55mn
Overall bit rate : 1 809 Kbps
Writing application : VirtualDubModRus 1.5.10.2 (build 2542/release)
Writing library : VirtualDubMod build 2542/release
Video
ID : 0
Format : MPEG-4 Visual
Format profile : Advanced Simple@L5
Format settings, BVOP : 1
Format settings, QPel : No
Format settings, GMC : No warppoints
Format settings, Matrix : Default (MPEG)
Codec ID : XVID
Codec ID/Hint : XviD
Duration : 1h 55mn
Bit rate : 1 410 Kbps
Width : 720 pixels
Height : 304 pixels
Display aspect ratio : 2.35:1
Frame rate : 25.000 fps
Color space : YUV
Chroma subsampling : 4:2:0
Bit depth : 8 bits
Scan type : Progressive
Compression mode : Lossy
Bits/(Pixel*Frame) : 0.256
Stream size : 1.13 GiB (78%)
Writing library : XviD 1.2.1 (UTC 2008-12-04)
Audio #1
ID : 1
Format : AC-3
Format/Info : Audio Coding 3
Mode extension : CM (complete main)
Format settings, Endianness : Big
Codec ID : 2000
Duration : 1h 55mn
Bit rate mode : Constant
Bit rate : 192 Kbps
Channel count : 2 channels
Channel positions : Front: L R
Sampling rate : 48.0 KHz
Bit depth : 16 bits
Compression mode : Lossy
Stream size : 159 MiB (11%)
Alignment : Split accross interleaves
Interleave, duration : 40 ms (1.00 video frame)
Interleave, preload duration : 500 ms
Audio #2
ID : 2
Format : AC-3
Format/Info : Audio Coding 3
Mode extension : CM (complete main)
Format settings, Endianness : Big
Codec ID : 2000
Duration : 1h 55mn
Bit rate mode : Constant
Bit rate : 192 Kbps
Channel count : 2 channels
Channel positions : Front: L R
Sampling rate : 48.0 KHz
Bit depth : 16 bits
Compression mode : Lossy
Stream size : 159 MiB (11%)
Alignment : Split accross interleaves
Interleave, duration : 40 ms (1.00 video frame)
Interleave, preload duration : 500 ms



Скачать Христофор.Колумб.История.открытий.Christopher.Columbus.The.Discovery.(Джон.Глен).[1992.приключения.биография.история.HDRip].[MVO.(ТРК.Петербург.5.канал)].+.[Original.(Eng)].torrent без регистрации
Золото ЗОЛОТАЯ РАЗДАЧА! СКАЧАННОЕ НЕ ЗАСЧИТЫВАЕТСЯ! Золото
Дата: Зарегистрирован   [ Тип: внутренний ] Как тут cкачать?
MAGNET ссылка
MAGNET ссылка


Скачать .torrent

15 KB

Статус: проверено DHT
Скачан: торрент - 109 раз, раздача полностью - 7 раз
Размер: 1,45 GB
Оценка:  - (Голосов: 0)
Поблагодарили: 0
Поделиться ссылкой на эту раздачу с друзьями:
В контактеFacebookОдноклассникиTwitterLivejournalМой МирLiveinternet
 

 
Показать сообщения:    


Вы не можете начинать темы
Вы не можете отвечать на сообщения
Вы не можете редактировать свои сообщения
Вы не можете удалять свои сообщения
Вы не можете голосовать в опросах
Вы не можете прикреплять файлы к сообщениям
Вы можете скачивать файлы