Loading...
Error

Скачать Бетховен / Beethoven (Брайан Левант) [1992, комедия, семейный, драма, DVDRip] [DUB (Ист-Вест)] + [MVO (СТС)] + [DVO (Премьер Видео Фильм)] торрент без регистрации

 
Статистика раздачи
Размер:  1,65 GB   |    Скачан:  178 раз
Сидов:  1  [  0 KB/s  ]  
 
Автор Сообщение

Marsianka

[] 

Бетховен / Beethoven
Страна: США
Жанр: комедия, семейный, драма
Год выпуска: 1992
Продолжительность: 01:23:41
Режиссер: Брайан Левант / Brian Levant
В ролях: Чарльз Гродин, Бонни Хант, Дин Джонс, Николь Том, Кристофер Кастиль, Сара Роуз Карр, Оливер Платт, Стэнли Туччи, Дэвид Духовны, Патриция Хитон
Описание: Герой фильма — не великий композитор, а случайно названный его именем симпатяга-сенбернар. Попав еще щенком в приютившую его семью, пес быстро подружился с детьми и их матерью — только отец поглядывал на беспокойного домочадца косо.




Качество видео: DVDRip
Формат видео: AVI
Видео: XviD, 720x384 (1,85:1), 25.000 fps, 2244 kbps avg

Сэмпл
Перевод: Профессиональный (дублированный) Ист-Вест
Перевод 2: Профессиональный (многоголосый закадровый) СТС
Перевод 3: Профессиональный (двухголосый закадровый) Премьер Видео Фильм
Cубтитры: нет
Русский (Ист-Вест) AC3, 48.0 khz, 2.0 ch, 192 kbps (Киноплёнка от )
Русский (СТС) AC3, 48.0 khz, 2.0 ch, 192 kbps (SATRip by )
Русский (Премьер Видео Фильм) AC3, 48.0 khz, 2.0 ch, 192 kbps (VHSRip by )
Общее
Полное имя : F:\Альберт\Готовые Фильмы\Бетховен.avi
Формат : AVI
Формат/Информация : Audio Video Interleave
Размер файла : 1,43 Гбайт
Продолжительность : 1 ч. 23 м.
Общий поток : 2445 Кбит/сек
Программа кодирования : VirtualDubMod 1.5.10.2 (build 2542/release)
Библиотека кодирования : VirtualDubMod build 2542/release
Видео
Идентификатор : 0
Формат : MPEG-4 Visual
Профиль формата : Advanced Simple@L5
Параметр BVOP формата : 1
Параметр QPel формата : Нет
Параметр GMC формата : Без точки перехода
Параметр матрицы формата : Выборочная
Идентификатор кодека : XVID
Идентификатор кодека/Подсказка : XviD
Продолжительность : 1 ч. 23 м.
Битрейт : 2244 Кбит/сек
Ширина : 720 пикселей
Высота : 384 пикселя
Соотношение сторон : 1,85:1
Частота кадров : 25,000 кадров/сек
Цветовое пространство : YUV
Субдискретизация насыщенности : 4:2:0
Битовая глубина : 8 бит
Тип развёртки : Прогрессивная
Метод сжатия : С потерями
Бит/(Пиксели*Кадры) : 0.325
Размер потока : 1,31 Гбайт (92%)
Библиотека кодирования : XviD 1.2.0.dev47 (UTC 2006-11-01)
Аудио
Идентификатор : 1
Формат : AC-3
Формат/Информация : Audio Coding 3
Расширение режима : CM (complete main)
Параметр Endianness формата : Big
Идентификатор кодека : 2000
Продолжительность : 1 ч. 23 м.
Вид битрейта : Постоянный
Битрейт : 192 Кбит/сек
Каналы : 2 канала
Расположение каналов : Front: L R
Частота : 48,0 КГц
Битовая глубина : 16 бит
Метод сжатия : С потерями
Размер потока : 115 Мбайт (8%)
Выравнивание : Разделение по промежуткам
Продолжительность промежутка : 40 мс. (1,00 видеокадр)
Время предзагрузки промежутка : 500 мс.



Скачать Бетховен.Beethoven.(Брайан.Левант).[1992.комедия.семейный.драма.DVDRip].[DUB.(Ист-Вест)].+.[MVO.(СТС)].+.[DVO.(Премьер.Видео.Фильм)].torrent без регистрации
Золото ЗОЛОТАЯ РАЗДАЧА! СКАЧАННОЕ НЕ ЗАСЧИТЫВАЕТСЯ! Золото
Дата: Зарегистрирован   [ Тип: внутренний ] Как тут cкачать?
MAGNET ссылка
MAGNET ссылка


Скачать .torrent

17 KB

Статус: проверено DHT
Скачан: торрент - 178 раз, раздача полностью - 28 раз
Размер: 1,65 GB
Оценка:  - (Голосов: 0)
Поблагодарили: 1
Поделиться ссылкой на эту раздачу с друзьями:
В контактеFacebookОдноклассникиTwitterLivejournalМой МирLiveinternet
 

 
Показать сообщения:    


Вы не можете начинать темы
Вы не можете отвечать на сообщения
Вы не можете редактировать свои сообщения
Вы не можете удалять свои сообщения
Вы не можете голосовать в опросах
Вы не можете прикреплять файлы к сообщениям
Вы можете скачивать файлы