Loading...
Error

Скачать Сонная лощина / Sleepy Hollow (Тим Бертон) [1999, мистика, триллер, BDRip] [Dub] торрент без регистрации

 
Статистика раздачи
Размер:  1,46 GB   |    Скачан:  187 раз
Сидов:  1  [  0 KB/s  ]  
 
Автор Сообщение

Marsianka

[] 

Сонная лощина
Sleepy Hollow
Год выпуска: 1999
Страна: США
Жанр: мистика, триллер
Продолжительность: 01:45:15
Перевод: профессиональный полное дублирование МосФильм Мастер
Cубтитры: нет
Режиссер: Тим Бертон / Tim Burton
В ролях:
Джонни Депп, Миранда Ричардсон, Кристина Риччи, Майкл Гэмбон, Каспер Ван Дьен, Джеффри Джонс, Ричард Гриффитс, Иэн МакДайармид, Майкл Гаф, Кристофер Уокен, Марк Пикеринг, Лиза Мари, Стивен Уоддингтон, Клер Скиннер, Кристофер Ли
Описание:
1799 год. Нью-йоркский полисмен Икабод Крейн за свою неуемную страсть к научному ведению следствия получает задание раскрыть тайну Сонной Лощины - там один за другим находят обезглавленные трупы местных жителей. Крейн знакомится с деталями дела, параллельно узнавая леденящую кровь историю Гессенского Всадника - хладнокровного убийцы, нанятого англичанами во время войны за независимость и "потерявшего голову" в лесах близ Сонной Лощины. Потусторонние силы и колдовские чары обрушиваются на слабую и чувствительную нервную систему Крейна, в то время как сердцем его завладела Катарина ван Тассел, дочь богатого фермера Балтуса ван Тассела. Превозмогая приступы панического страха и применяя современные методы расследования преступлений, Крейн-таки находит виновного и раскрывает тайну отрубленных голов в Сонной Лощине.


Качество видео: (спасибо kukushka)
Формат видео: AVI
Видео кодек: XviD
Аудио кодек: АС3
Видео: 704x384 (1.83:1), 23.976 fps, XviD, ~1783 kbps avg, 0.28 bit/pixel
Аудио: 48 kHz, AC3 Dolby Digital, 2/0 (L,R) ch, ~192.00 kbps avg


Сэмпл

Фильм снят по мотивам классической новеллы Вашингтона Ирвинга «Легенда о Сонной лощине».
Лес, где находится Дерево Мертвых, как и небо над ним, строили искусственно, в павильонах английской Leavesden Studios.
Мартин Ландау и Кристофер Уокен снялись в “Сонной Лощине” бесплатно - ради участия в фильме Бертона.
Каспер Ван Дин во время съёмки сцены боя с топором сломал большой палец.
В одной из сцен мы видим каминную доску в доме Ван Тасселей, на которой стоят вырезанные в тыквах лица. Но эта традиция возникла только в 1840-х годах во время массовых ирландских иммиграций.
За весь фильм на экране произошло 18 обезглавливаний, а его главный герой Икабод Крейн пять раз терял сознание.
Картина снималась с ноября 1998-го по апрель 1999 года в Великобритании в Лондоне и графствах Хертфордшир, Оксфордшир и Суррей.
За весь фильм всадник без головы (Кристофер Уокен) произносит только несколько фраз, типа «Ха!» (когда подгонял лошадь) и «ш-ш-ш-ш». К тому же для артиста этот фильм явился второй картиной, где его герой целуется (первая «Мертвая зона» (The Dead Zone, 1983). Кристофер Уокен, который играл школьного учителя в картине «Мертвая зона» (The Dead Zone, 1983), начал свой урок с того, что дал задание ученикам прочитать рассказ Вашингтона Ирвинга «Легенда о Сонной Лощине».
Построенная в Великобритании деревня Сонная Лощина стала самой крупной декорацией в натуральную величину в этой стране, и к тому же построенной в рекордные сроки – за три месяца.
Мертвое дерево в «Сонной Лощине» и дерево под которым находятся могилы семьи слуг в фильме «Другие» — это одна и та же декорация.

Награды:
Оскар, 2000 год
Победитель: Лучшие декорации
Номинации: Лучшая работа оператора, Лучшие костюмы
Британская академия, 2000 год
Победитель: Лучшие костюмы, Лучшая работа художника-постановщика
Номинации: Лучшие визуальные эффекты
Сатурн, 2000 год
Победитель: Лучшая актриса (Кристина Риччи), Лучшая музыка
Номинации: Лучший фильм ужасов, Лучший режиссер (Тим Бёртон), Лучший актер (Джонни Депп), Лучший актер второго плана (Кристофер Уокен), Лучшая актриса второго плана (Миранда Ричардсон), Лучшие костюмы, Лучшие спецэффекты, Лучший сценарий, Лучший грим
General
Complete name : D:\Sonnaja.Loschina.1999.BDRip.avi
Format : AVI
Format/Info : Audio Video Interleave
File size : 1.46 GiB
Duration : 1h 45mn
Overall bit rate : 1 985 Kbps
Writing application : VirtualDubMod 1.5.10.3 (build 2550/release)
Writing library : VirtualDubMod build 2550/release
Video
ID : 0
Format : MPEG-4 Visual
Format profile : Advanced Simple@L5
Format settings, BVOP : 1
Format settings, QPel : No
Format settings, GMC : No warppoints
Format settings, Matrix : Custom
Codec ID : XVID
Codec ID/Hint : XviD
Duration : 1h 45mn
Bit rate : 1 784 Kbps
Width : 704 pixels
Height : 384 pixels
Display aspect ratio : 16:9
Frame rate : 23.976 fps
Color space : YUV
Chroma subsampling : 4:2:0
Bit depth : 8 bits
Scan type : Progressive
Compression mode : Lossy
Bits/(Pixel*Frame) : 0.275
Stream size : 1.31 GiB (90%)
Writing library : XviD 64
Audio
ID : 1
Format : AC-3
Format/Info : Audio Coding 3
Mode extension : CM (complete main)
Codec ID : 2000
Duration : 1h 45mn
Bit rate mode : Constant
Bit rate : 192 Kbps
Channel(s) : 2 channels
Channel positions : Front: L R
Sampling rate : 48.0 KHz
Bit depth : 16 bits
Compression mode : Lossy
Stream size : 145 MiB (10%)
Alignment : Split accross interleaves
Interleave, duration : 42 ms (1.00 video frame)
Interleave, preload duration : 500 ms



Скачать Сонная.лощина.Sleepy.Hollow.(Тим.Бертон).[1999.мистика.триллер.BDRip].[Dub].torrent без регистрации
Золото ЗОЛОТАЯ РАЗДАЧА! СКАЧАННОЕ НЕ ЗАСЧИТЫВАЕТСЯ! Золото
Дата: Зарегистрирован   [ Тип: внутренний ] Как тут cкачать?
MAGNET ссылка
MAGNET ссылка


Скачать .torrent

15 KB

Статус: проверено DHT
Скачан: торрент - 187 раз, раздача полностью - 102 раз
Размер: 1,46 GB
Оценка:  - (Голосов: 0)
Поблагодарили: 2
Поделиться ссылкой на эту раздачу с друзьями:
В контактеFacebookОдноклассникиTwitterLivejournalМой МирLiveinternet
 

 

yevgenius

[] 

ag ag ag
 
Показать сообщения:    


Вы не можете начинать темы
Вы не можете отвечать на сообщения
Вы не можете редактировать свои сообщения
Вы не можете удалять свои сообщения
Вы не можете голосовать в опросах
Вы не можете прикреплять файлы к сообщениям
Вы можете скачивать файлы