Loading...
Error

Скачать Плутовство / Хвост Виляет Собакой / Wag The Dog (Барри Левинсон) [1997, комедия, драма, HDTVRip] [MVO (Россия-1)] торрент без регистрации

 
Статистика раздачи
Размер:  1,4 GB   |    Скачан:  101 раз
Сидов:  1  [  0 KB/s  ]  
 
Автор Сообщение

Marsianka

[] 

Плутовство / Хвост Виляет Собакой / Wag The Dog
Страна: США
Жанр: комедия, драма
Год выпуска: 1997
Продолжительность: 01:36:54
Перевод: Профессиональный (многоголосый закадровый) Россия-1
Cубтитры: нет
Режиссер: Барри Левинсон / Barry Levinson
В ролях: Дастин Хоффман, Роберт Де Ниро, Энн Хеч, Дэнис Лири, Уилли Нельсон, Андреа Мартин, Кирстен Данст, Вуди Харрельсон, Уильям Х. Мэйси, Джон Майкл Хиггинс
Описание: Чтобы отвлечь внимание общественности от сексуального скандала, связанного с президентом США, срочно вызывают специалиста по нештатным ситуациям Конрада Брина. Брин решает инсценировать небольшую войну и, в свою очередь, привлекает известного голливудского продюсера Стенли Мотса.
Вдвоем они организуют шоу в мировом масштабе с истинно голливудским размахом! Ну не мог Стенли Мотс упустить этот редкий шанс удовлетворения своих профессиональных амбиций!



Качество видео: HDTVRip ()
Формат видео: AVI
Видео: XviD, 720x400 (16:9), 23.976 fps, 1865 kbps avg
Аудио:
Русский (Россия-1) AC3, 48.0 khz, 2.0 ch, 192 kbps (IPTVRip by )

Сэмпл
Общее
Полное имя : E:\Альберт\Downloads\Плутовство.avi
Формат : AVI
Формат/Информация : Audio Video Interleave
Размер файла : 1,40 Гбайт
Продолжительность : 1 ч. 36 м.
Общий поток : 2067 Кбит/сек
Программа кодирования : VirtualDubMod 1.5.10.2 (build 2540/release)
Библиотека кодирования : VirtualDubMod build 2540/release
Видео
Идентификатор : 0
Формат : MPEG-4 Visual
Профиль формата : Advanced Simple@L5
Параметр BVOP формата : 2
Параметр QPel формата : Нет
Параметр GMC формата : Без точки перехода
Параметр матрицы формата : Default (H.263)
Идентификатор кодека : XVID
Идентификатор кодека/Подсказка : XviD
Продолжительность : 1 ч. 36 м.
Битрейт : 1865 Кбит/сек
Ширина : 720 пикселей
Высота : 400 пикселей
Соотношение сторон : 16:9
Частота кадров : 23,976 кадра/сек
Цветовое пространство : YUV
Субдискретизация насыщенности : 4:2:0
Битовая глубина : 8 бит
Тип развёртки : Прогрессивная
Метод сжатия : С потерями
Бит/(Пиксели*Кадры) : 0.270
Размер потока : 1,26 Гбайт (90%)
Библиотека кодирования : XviD 1.2.1 (UTC 2008-12-04)
Аудио
Идентификатор : 1
Формат : AC-3
Формат/Информация : Audio Coding 3
Расширение режима : CM (complete main)
Параметр Endianness формата : Big
Идентификатор кодека : 2000
Продолжительность : 1 ч. 36 м.
Вид битрейта : Постоянный
Битрейт : 192 Кбит/сек
Каналы : 2 канала
Расположение каналов : Front: L R
Частота : 48,0 КГц
Битовая глубина : 16 бит
Метод сжатия : С потерями
Размер потока : 133 Мбайт (9%)
Выравнивание : Разделение по промежуткам
Продолжительность промежутка : 42 мс. (1,00 видеокадр)
Время предзагрузки промежутка : 500 мс.



Скачать Плутовство.Хвост.Виляет.Собакой.Wag.The.Dog.(Барри.Левинсон).[1997.комедия.драма.HDTVRip].[MVO.(Россия-1)].torrent без регистрации
Золото ЗОЛОТАЯ РАЗДАЧА! СКАЧАННОЕ НЕ ЗАСЧИТЫВАЕТСЯ! Золото
Дата: Зарегистрирован   [ Тип: внутренний ] Как тут cкачать?
MAGNET ссылка
MAGNET ссылка


Скачать .torrent

15 KB

Статус: проверено DHT
Скачан: торрент - 101 раз, раздача полностью - 12 раз
Размер: 1,4 GB
Оценка:  - (Голосов: 0)
Поблагодарили: 1
Поделиться ссылкой на эту раздачу с друзьями:
В контактеFacebookОдноклассникиTwitterLivejournalМой МирLiveinternet
 

 
Показать сообщения:    


Вы не можете начинать темы
Вы не можете отвечать на сообщения
Вы не можете редактировать свои сообщения
Вы не можете удалять свои сообщения
Вы не можете голосовать в опросах
Вы не можете прикреплять файлы к сообщениям
Вы можете скачивать файлы