Loading...
Error

Скачать Сломанная стрела / Broken arrow (Джон Ву / John Woo) [1996 г., триллер, приключения, боевик, BDRip] [AVO] (А.Гаврилов) + [MVO] торрент без регистрации

 
Статистика раздачи
Размер:  1,46 GB   |    Скачан:  116 раз
Сидов:  1  [  0 KB/s  ]  
 
Автор Сообщение

leon030982

[] 

Сломанная стрела / Broken arrow



Год выпуска: 1996
Страна: США
Выпущено: 20th Century Fox
Жанр: триллер, приключения, боевик
Продолжительность: 01:48:21
Перевод #1: Авторский (одноголосый) [А.Гаврилов]
Перевод #2: Профессиональный (многоголосый, закадровый)

Режиссер: Джон Ву / John Woo

В ролях: Джон Траволта, Кристиан Слэйтер, Саманта Мэтис, Делрой Линдо, Боб Гантон, Фрэнк Уэли, Хоуи Лонг, Вонди Куртис-Холл, Джек Томпсон, Вито Руджинис, Ousaun Elam, Шон Тоуб, Кэйси Биггз, Джеффри Дж. Стивен, Джои , Jon W. Kishi, Шварц, Джим Палмер

Описание: Джон Траволта и Кристиан Слэйтер играют двух пилотов-асов американских ВВС. Им поручается выполнить секретное задание на самолете-невидимке с двумя ядерными боеголовками на борту. Дикенс, неудачник по жизни, постоянно пропускающий повышения по службе, задумывает похитить боеголовки, с тем чтобы шантажировать правительство США.
Но его напарник Хэйл - честный парень и не позволит никому так просто взять и украсть собственность своей роднойстраны. Между ними разгорается самая настоящая война, в которой могут погибнуть не только они, но и несколько миллионов мирных жителей, живущих в округе, если хотя бы одна ядерная боеголовка взорвется..




Качество: BDRip [исх. Blu-ray Disc / 1080p]
Формат: AVI
Видео кодек: XviD
Аудио кодек: AC3
Видео: 720x304 (2.37:1), 23.976 fps, XviD build 47 ~1532 kbps avg, 0.29 bit/pixel
Аудио 1: 48 kHz, AC3 Dolby Digital, 2/0 (L,R), ~192.00 kbps avg [AVO]
Аудио 2: 48 kHz, AC3 Dolby Digital, 2/0 (L,R), ~192.00 kbps avg [MVO]

• «Сломанная стрела» — реально существующий военный сценарий в США о потере ядерного оружия.

Гонконгский режиссёр Джон Ву снял свою вторую картину в Голливуде и добился вдвое большего успеха по сравнению с результатами «Трудной мишени», поставленной двумя годами ранее. Ву может гордиться ещё и тем, что до него ни один из китайцев никогда не добивался подобных показателей в прокате США. Надо дополнительно отметить, что Джон Ву с помощью «Сломанной стрелы» попал в избранное число «лимитчиков Голливуда», которые начали теснить местных кинодеятелей по коммерческим результатам, чего прежде в американском кино вовсе не наблюдалось, а приезжие постановщики довольствовались, в основном, культурно-кинематографическим признанием. Хотя, в принципе, нет ничего плохого в том, что лента получила широкий зрительский успех.
Ву был превознесён ещё за гонгонские фильмы западными критиками, заслужил похвалу из уст таких мэтров, как Мартин Скорсезе и Оливер Стоун, сам стал культовой фигурой в среде киноманов и по наивности предполагал, что и в Голливуде ему предоставят полную свободу действий как автору жестоких и порой кровавых, но непременно эстетизированных и кинематографически изощрённых боевиков. Поэтому он остался недоволен сглаженным и очищенным вариантом «Трудной мишени», где были лишь дозволены не чересчур кровопролитные , погони и трюки, зато сверх меры насыщенные спецэффектами и ставшие из-за этого более искусственными. Однако Джон Ву не покинул Лос-Анджелес, а более того — начал придирчиво выбирать свой очередной проект, остановившись, в конце концов, на новом сценарии Грэма Йоста, который в 1994 году многих удивил неожиданной суперудачей придуманного им боевика «Скорость» (кстати, тоже снят «чужаком» — голландцем Яном де Бонтом).
«Сломанная стрела» — в каком-то смысле продолжение «Скорости». Только теперь хитроумный террорист не подкладывает бомбу в городской автобус, который должен взорваться лишь в том случае, когда скорость окажется ниже пятидесяти миль в час. На сей раз он сам, будучи одним из пилотов американского бомбардировщика с ядерными боеголовками на борту, решает похитить их и обогатиться, шантажируя власти. Условность и выдуманность ситуации доведена уже до предела, за которым лежит область не просто авантюрного кино, а откровенно комиксового, пародийного жанра, но эта граница, тем не менее, не пересекается.
И авторы «Сломанной стрелы» (название вызывает, скорее, ассоциации со всевозможными вестернами о благородных ковбоях и кровожадных индейцах) пытались изо всех сил представить свой фильм как зрелищный боевик о двух слишком заигравшихся в мужское честолюбивое соперничество персонажах, один из которых готов не только подставить друга, но и пойти на предательство отчизны. Получилось вполне по-советски («сегодня ты играешь джаз, а завтра родину продашь») или же в духе бестолковых шпионских картин эпохи «железного занавеса» («берегись даже своего — он может оказаться скрытым комми»).
И вместо того, чтобы развивать абсурдно-ироническую, чёрно-юмористическую тенденцию, которая была заявлена, например, ещё в «Докторе Стрейнджлаве» Стенли Кубрика, Джон Ву в большей степени старался подладиться под современный голливудский стиль бездумного приключенческого кино, где кто-то что-то постоянно взрывает, напропалую ворует ядерные ракеты, угрожая непременно уничтожить Соединенные Штаты (что в понимании янки есть полный крах всей человеческой цивилизации).
«Сломанная стрела» похожа уже на «Крепкий орешек 2» (между прочим, и его создал «лимитчик» — Ренни Харлин из Финляндии), самый «непробиваемый» (в смысле — тупой) в киноцикле и, кстати, наиболее кассовый. Пиф-паф, бух-бам, трах-тара-рам! И вся суть этими возгласами исчерпывается. Кино обнаруживает свою задержанную инфантильность, отражает подростковый комплекс неосознанного хулиганства, вызова против мира взрослых. Как говорится, трудный возраст. «Трудная мишень», «Сломанная стрела», трудно и ещё труднее!
1996
General
Complete name : F:\NEW VIDEO\Broken arrow.BDRip.1996.[AVO](Gavrilov)+[MVO].avi
Format : AVI
Format/Info : Audio Video Interleave
File size : 1.46 GiB
Duration : 1h 48mn
Overall bit rate : 1 932 Kbps
Writing application : VirtualDubMod 1.5.10.3 (build 2550/release)
Writing library : VirtualDubMod build 2550/release

Video
ID : 0
Format : MPEG-4 Visual
Format profile : Advanced Simple@L5
Format settings, BVOP : 1
Format settings, QPel : No
Format settings, GMC : No warppoints
Format settings, Matrix : Default (MPEG)
Codec ID : XVID
Codec ID/Hint : XviD
Duration : 1h 48mn
Bit rate : 1 533 Kbps
Width : 720 pixels
Height : 304 pixels
Display aspect ratio : 2.35:1
Frame rate : 23.976 fps
Color space : YUV
Chroma subsampling : 4:2:0
Bit depth : 8 bits
Scan type : Progressive
Compression mode : Lossy
Bits/(Pixel*Frame) : 0.292
Stream size : 1.16 GiB (79%)
Writing library : XviD 1.2.0.dev47 (UTC 2006-11-01)

Audio #1
ID : 1
Format : AC-3
Format/Info : Audio Coding 3
Mode extension : CM (complete main)
Codec ID : 2000
Duration : 1h 48mn
Bit rate mode : Constant
Bit rate : 192 Kbps
Channel(s) : 2 channels
Channel positions : Front: L R
Sampling rate : 48.0 KHz
Bit depth : 16 bits
Compression mode : Lossy
Stream size : 149 MiB (10%)
Alignment : Split accross interleaves
Interleave, duration : 42 ms (1.00 video frame)
Interleave, preload duration : 500 ms

Audio #2
ID : 2
Format : AC-3
Format/Info : Audio Coding 3
Mode extension : CM (complete main)
Codec ID : 2000
Duration : 1h 48mn
Bit rate mode : Constant
Bit rate : 192 Kbps
Channel(s) : 2 channels
Channel positions : Front: L R
Sampling rate : 48.0 KHz
Bit depth : 16 bits
Compression mode : Lossy
Stream size : 149 MiB (10%)
Alignment : Split accross interleaves
Interleave, duration : 42 ms (1.00 video frame)
Interleave, preload duration : 500 ms



Скачать Сломанная.стрела.Broken.arrow.(Джон.Ву.John.Woo).[1996.г.триллер.приключения.боевик.BDRip].[AVO].(А.Гаврилов).+.[MVO].torrent без регистрации
Золото ЗОЛОТАЯ РАЗДАЧА! СКАЧАННОЕ НЕ ЗАСЧИТЫВАЕТСЯ! Золото
Дата: Зарегистрирован   [ Тип: внутренний ] Как тут cкачать?
MAGNET ссылка
MAGNET ссылка


Скачать .torrent

15 KB

Статус: проверено DHT
Скачан: торрент - 116 раз, раздача полностью - 7 раз
Размер: 1,46 GB
Оценка:  5 (Голосов: 1)
Поблагодарили: 0
Поделиться ссылкой на эту раздачу с друзьями:
В контактеFacebookОдноклассникиTwitterLivejournalМой МирLiveinternet
 

 
Показать сообщения:    


Вы не можете начинать темы
Вы не можете отвечать на сообщения
Вы не можете редактировать свои сообщения
Вы не можете удалять свои сообщения
Вы не можете голосовать в опросах
Вы не можете прикреплять файлы к сообщениям
Вы можете скачивать файлы