Loading...
Error

Скачать 10 Причин Моей Ненависти / 10 Things I Hate About You (Джил Джангер) [1999, комедия, мелодрама, BDRip] [MVO (Disney Channel)] торрент без регистрации

 
Статистика раздачи
Размер:  1,46 GB   |    Скачан:  105 раз
Сидов:  1  [  0 KB/s  ]  
 
Автор Сообщение

Marsianka

[] 

10 Причин Моей Ненависти / 10 Things I Hate About You
Страна: США
Жанр: комедия, мелодрама
Год выпуска: 1999
Продолжительность: 01:37:36
Перевод: Профессиональный (многоголосый закадровый) Disney Channel
Cубтитры: нет
Режиссер: Джил Джангер / Gil Junger
В ролях: Хит Леджер, Джулия Стайлз, Джозеф Гордон-Левитт, Лариса Олейник, Дэвид Крамхолц, Эндрю Кигэн, Сьюзэн Мэй Прэтт, Гэбриэл Юнион, Ларри Миллер, Дэрил Митчелл
Описание: Строгий отец поставил условие: Бьянка пойдет на свидание, если ее сестра Кэт тоже согласится встретиться с парнем. Но Кэт — синий чулок и отчаянная мужененавистница. Бьянка пытается найти для сестры такого же зануду, как она.



Качество видео: BDRip
Формат видео: AVI
Видео: XviD, 704x384 (1,85:1), 23.976 fps, 1935 kbps avg
Аудио:
1 - 48 khz, AC3 Dolby Digital, 2/0 (L,R) ch, ~192 kbps [Disney Channel] IPTVRip

Сэмпл
Общее
Полное имя : E:\Альберт\Downloads\10 Причин Моей Ненависти MVO Disney Channel.avi
Формат : AVI
Формат/Информация : Audio Video Interleave
Размер файла : 1,46 Гбайт
Продолжительность : 1 ч. 37 м.
Общий поток : 2136 Кбит/сек
Название фильма : 10 причин моей ненависти / 10 Things I Hate About You (1999) BDRip
Режиссёр : xxL
Программа кодирования : VirtualDubMod 1.5.10.2 (build 2540/release)
Библиотека кодирования : VirtualDubMod build 2540/release
Видео
Идентификатор : 0
Формат : MPEG-4 Visual
Профиль формата : Advanced Simple@L5
Параметр BVOP формата : 1
Параметр QPel формата : Нет
Параметр GMC формата : Без точки перехода
Параметр матрицы формата : Выборочная
Идентификатор кодека : XVID
Идентификатор кодека/Подсказка : XviD
Продолжительность : 1 ч. 37 м.
Битрейт : 1935 Кбит/сек
Ширина : 704 пикселя
Высота : 384 пикселя
Соотношение сторон : 1,85:1
Частота кадров : 23,976 кадра/сек
Цветовое пространство : YUV
Субдискретизация насыщенности : 4:2:0
Битовая глубина : 8 бит
Тип развёртки : Прогрессивная
Метод сжатия : С потерями
Бит/(Пиксели*Кадры) : 0.298
Размер потока : 1,32 Гбайт (91%)
Библиотека кодирования : XviD 1.2.1 (UTC 2008-12-04)
Аудио
Идентификатор : 1
Формат : AC-3
Формат/Информация : Audio Coding 3
Расширение режима : CM (complete main)
Параметр Endianness формата : Big
Идентификатор кодека : 2000
Продолжительность : 1 ч. 37 м.
Вид битрейта : Постоянный
Битрейт : 192 Кбит/сек
Каналы : 2 канала
Расположение каналов : Front: L R
Частота : 48,0 КГц
Битовая глубина : 16 бит
Метод сжатия : С потерями
Размер потока : 134 Мбайт (9%)
Выравнивание : Разделение по промежуткам
Продолжительность промежутка : 42 мс. (1,00 видеокадр)
Время предзагрузки промежутка : 500 мс.



Скачать 10.Причин.Моей.Ненависти.10.Things.I.Hate.About.You.(Джил.Джангер).[1999.комедия.мелодрама.BDRip].[MVO.(Disney.Channel)].torrent без регистрации
Золото ЗОЛОТАЯ РАЗДАЧА! СКАЧАННОЕ НЕ ЗАСЧИТЫВАЕТСЯ! Золото
Дата: Зарегистрирован   [ Тип: внутренний ] Как тут cкачать?
MAGNET ссылка
MAGNET ссылка


Скачать .torrent

15 KB

Статус: проверено DHT
Скачан: торрент - 105 раз, раздача полностью - 26 раз
Размер: 1,46 GB
Оценка:  5 (Голосов: 1)
Поблагодарили: 1
Поделиться ссылкой на эту раздачу с друзьями:
В контактеFacebookОдноклассникиTwitterLivejournalМой МирLiveinternet
 

 
Показать сообщения:    


Вы не можете начинать темы
Вы не можете отвечать на сообщения
Вы не можете редактировать свои сообщения
Вы не можете удалять свои сообщения
Вы не можете голосовать в опросах
Вы не можете прикреплять файлы к сообщениям
Вы можете скачивать файлы