Loading...
Error

Скачать Тайны и ложь / Secrets & Lies (сезон 01) (Кейт Дэннис, Питер Сэлмон) [2014, триллер, драма, HDTVRip] [720p] [DVO (VictoryFilms)] торрент без регистрации

 
Статистика раздачи
Размер:  3,45 GB   |    Скачан:  439 раз
Сидов:  1  [  0 KB/s  ]  
 
Автор Сообщение

МихаНЕзатор

[] 

Информация о фильме
Название: Тайны и ложь
Оригинальное название: Secrets & Lies
Год выхода: 2014
Жанр: триллер, драма
Режиссер: Кейт Дэннис, Питер Сэлмон

В ролях: Мартин Хендерсон, Энтони Хэйес, Диана Гленн, Эдриэнн Пикеринг, Филиппа Култхард, Пайпер Мориссей, Дамон Гамо, Хантер Стрэттон Боланд, Стивен Тэнди

О фильме: Жизнь маляра Бена Ганделаха меняется, когда однажды утром во время пробежки он находит тело ребёнка в лесу. Это трагическое событие привлечёт пристальное внимание полиции и изменит отношение к нему не только соседей и клиентов, но и членов его собственной семьи. Удастся ли Бену докопаться до истины и раскрыть тайну смерти мальчика, не попавшись в тенёта всё новой лжи?



Страна: Австралия
Студия: Hoodlum Entertainment, Network Ten
Продолжительность: ~ 00:43:00 серия
Перевод: Любительский (двухголосый закадровый) [VictoryFilms]

Файл
Кодек: h.264 / AC3
Качество: HDTVRip 720p
Видео: AVC, 1280x720 (16:9), 25.000 fps, 4 007 Kbps (0.174 bit/pixel)
Звук: AC-3, 48.0 KHz, 2 ch, 224 Kbps, CBR

АНОНСЫ ПОПУЛЯРНЫХ РАЗДАЧ



Торент обновлён, добавлена 6-я серия!
General
Unique ID : 217596509989818383694915354022276323073 (0xA3B3903D7EFAF9F39BA750E401F95701)
Complete name : /Secrets.Lies.s01/Secrets.Lies.s01.e01.VktoryFilms.mkv
Format : Matroska
Format version : Version 4 / Version 2
File size : 1.30 GiB
Duration : 43mn 1s
Overall bit rate : 4 317 Kbps
Encoded date : UTC 2014-03-14 10:10:41
Writing application : mkvmerge v6.3.0 ('You can't stop me!') built on Jul 19 2013 16:27:38
Writing library : Lavf54.63.104

Video
ID : 1
Format : AVC
Format/Info : Advanced Video Codec
Format profile : High@L3.1
Format settings, CABAC : Yes
Format settings, ReFrames : 2 frames
Codec ID : V_MPEG4/ISO/AVC
Duration : 43mn 1s
Bit rate : 4 007 Kbps
Width : 1 280 pixels
Height : 720 pixels
Display aspect ratio : 16:9
Frame rate mode : Variable
Frame rate : 25.000 fps
Color space : YUV
Chroma subsampling : 4:2:0
Bit depth : 8 bits
Scan type : Progressive
Bits/(Pixel*Frame) : 0.174
Stream size : 1.20 GiB (93%)
Default : Yes
Forced : No

Audio
ID : 2
Format : AC-3
Format/Info : Audio Coding 3
Mode extension : CM (complete main)
Format settings, Endianness : Big
Codec ID : A_AC3
Duration : 43mn 1s
Bit rate mode : Constant
Bit rate : 224 Kbps
Channel(s) : 2 channels
Channel positions : Front: L R
Sampling rate : 48.0 KHz
Bit depth : 16 bits
Compression mode : Lossy
Delay relative to video : 24ms
Stream size : 68.9 MiB (5%)
Default : Yes
Forced : No



Скачать Тайны.и.ложь.Secrets.&.Lies.(сезон.01).(Кейт.Дэннис.Питер.Сэлмон).[2014.триллер.драма.HDTVRip].[720p].[DVO.(VictoryFilms)].torrent без регистрации
Золото ЗОЛОТАЯ РАЗДАЧА! СКАЧАННОЕ НЕ ЗАСЧИТЫВАЕТСЯ! Золото
Дата: Зарегистрирован   [ Тип: внутренний ] Как тут cкачать?
MAGNET ссылка
MAGNET ссылка


Скачать .torrent

19 KB

Статус: проверено DHT
Скачан: торрент - 439 раз, раздача полностью - 13 раз
Размер: 3,45 GB
Оценка:  - (Голосов: 0)
Поблагодарили: 1
Поделиться ссылкой на эту раздачу с друзьями:
В контактеFacebookОдноклассникиTwitterLivejournalМой МирLiveinternet
 

 
Показать сообщения:    


Вы не можете начинать темы
Вы не можете отвечать на сообщения
Вы не можете редактировать свои сообщения
Вы не можете удалять свои сообщения
Вы не можете голосовать в опросах
Вы не можете прикреплять файлы к сообщениям
Вы можете скачивать файлы