Loading...
Error

Скачать Тусовщики из супермаркета / Mallrats (Кевин Смит) [1995, мелодрама, комедия, HDRip-AVC] [MVO]+[Оригинал]+[Sub]x2 торрент без регистрации

 
Статистика раздачи
Размер:  1,45 GB   |    Скачан:  100 раз
Сидов:  1  [  0 KB/s  ]  
 
Автор Сообщение

Marsianka

[] 

Тусовщики из супермаркета / Mallrats (1995) HDRip-AVC

Информация о фильме
Название: Тусовщики из супермаркета
Оригинальное название: Mallrats
Год выхода: 1995
Жанр: мелодрама, комедия
Режиссер: Кевин Смит

В ролях: Шеннон Доэрти, Джереми Лондон, Джейсон Ли, Клер Форлани, Бен Аффлек, Джои Лоурен Адамс, Рени Хамфри, Джейсон Мьюз, Этан Сапли, Стэн Ли...

О фильме: Молодые ребята приходят в этот супермаркет не работать, не купить что-нибудь — они просто тусуются. Они ссорятся и мирятся со своими подружками, выясняют отношения, чешут языки, обсуждая друг друга и общих знакомых — перед зрителем вырисовывается жизнь нескольких человек, хотя все действие практически ограничено одним помещением.

Это тот период, когда человек уже закончил школу, но еще не вошел во взрослую жизнь — бывшие одноклассники держатся вместе, но скоро уже придется взрослеть и брать на себя ответственность. А пока они шалят по инерции.



Страна: США
Продолжительность: 01:35:13
Перевод: Профессиональный (многоголосый закадровый), Оригинал (Английский)

Файл
Кодек: x.264
Качество: HDRip-AVC
Видео: 960x528 (16:9), 23,976 fps, 1542 kbps, 0.127 bit/pixel
Аудио #1: 48 kHz, AC3 Dolby Digital, 6 ch, ~320.00 kbps | Русский
Аудио #2: 48 kHz, AC3 Dolby Digital, 6 ch, ~320.00 kbps | Английский
Субтитры: Русские, Английские (отключаемые)
&
Общее
Уникальный идентификатор : 199909075631946598917456535896839465821 (0x96651665D6AF202F99184686E348AB5D)
Полное имя : D:Mallrats.1995.HDRip-AVC.mkv
Формат : Matroska
Версия формата : Version 4 / Version 2
Размер файла : 1,45 Гбайт
Продолжительность : 1 ч. 35 м.
Общий поток : 2184 Кбит/сек
Название фильма : Тусовщики из супермаркета / Mallrats (1995) HDRip-AVC rip by Rulya74
Дата кодирования : UTC 2014-05-21 16:45:06
Программа кодирования : mkvmerge v6.5.0 ('Isn't she lovely') built on Oct 20 2013 12:50:05
Библиотека кодирования : libebml v1.3.0 + libmatroska v1.4.1

Видео
Идентификатор : 1
Формат : AVC
Формат/Информация : Advanced Video Codec
Профиль формата : High@L4.1
Параметр CABAC формата : Да
Параметр ReFrames формата : 12 кадров
Идентификатор кодека : V_MPEG4/ISO/AVC
Продолжительность : 1 ч. 35 м.
Битрейт : 1542 Кбит/сек
Ширина : 960 пикселей
Высота : 528 пикселей
Соотношение сторон : 16:9
Режим частоты кадров : Постоянный
Частота кадров : 23,976 кадра/сек
Цветовое пространство : YUV
Субдискретизация насыщенности : 4:2:0
Битовая глубина : 8 бит
Тип развёртки : Прогрессивная
Бит/(Пиксели*Кадры) : 0.127
Размер потока : 1022 Мбайт (69%)
Библиотека кодирования : x264 core 138 r2358 9e941d1
Настройки программы : cabac=1 / ref=12 / deblock=1:-3:-2 / analyse=0x3:0x113 / me=umh / subme=11 / psy=1 / psy_rd=1.00:0.00 / mixed_ref=1 / me_range=48 / chroma_me=1 / trellis=2 / 8x8dct=1 / cqm=0 / deadzone=21,11 / fast_pskip=0 / chroma_qp_offset=-2 / threads=8 / lookahead_threads=1 / sliced_threads=0 / nr=0 / decimate=1 / interlaced=0 / bluray_compat=0 / constrained_intra=0 / bframes=8 / b_pyramid=2 / b_adapt=2 / b_bias=0 / direct=1 / weightb=1 / open_gop=0 / weightp=2 / keyint=240 / keyint_min=23 / scenecut=40 / intra_refresh=0 / rc_lookahead=40 / rc=2pass / mbtree=1 / bitrate=1542 / ratetol=1.0 / qcomp=0.60 / qpmin=0 / qpmax=69 / qpstep=4 / cplxblur=20.0 / qblur=0.5 / vbv_maxrate=62500 / vbv_bufsize=78125 / nal_hrd=none / ip_ratio=1.40 / aq=1:1.00
Default : Да
Forced : Нет

Аудио #1
Идентификатор : 2
Формат : AC-3
Формат/Информация : Audio Coding 3
Расширение режима : CM (complete main)
Параметр Endianness формата : Big
Идентификатор кодека : A_AC3
Продолжительность : 1 ч. 35 м.
Вид битрейта : Постоянный
Битрейт : 320 Кбит/сек
Каналы : 6 каналов
Расположение каналов : Front: L C R, Side: L R, LFE
Частота : 48,0 КГц
Битовая глубина : 16 бит
Метод сжатия : С потерями
Размер потока : 218 Мбайт (15%)
Заголовок : Профессиональный (многоголосый закадровый)
Язык : Russian
Default : Да
Forced : Нет

Аудио #2
Идентификатор : 3
Формат : AC-3
Формат/Информация : Audio Coding 3
Расширение режима : CM (complete main)
Параметр Endianness формата : Big
Идентификатор кодека : A_AC3
Продолжительность : 1 ч. 35 м.
Вид битрейта : Постоянный
Битрейт : 320 Кбит/сек
Каналы : 6 каналов
Расположение каналов : Front: L C R, Side: L R, LFE
Частота : 48,0 КГц
Битовая глубина : 16 бит
Метод сжатия : С потерями
Размер потока : 218 Мбайт (15%)
Заголовок : Оригинал
Язык : English
Default : Нет
Forced : Нет

Текст #1
Идентификатор : 4
Формат : UTF-8
Идентификатор кодека : S_TEXT/UTF8
Идентификатор кодека/Информация : UTF-8 Plain Text
Язык : Russian
Default : Да
Forced : Нет

Текст #2
Идентификатор : 5
Формат : UTF-8
Идентификатор кодека : S_TEXT/UTF8
Идентификатор кодека/Информация : UTF-8 Plain Text
Язык : English
Default : Нет
Forced : Нет

Меню
00:00:00.000 : :Main Titles
00:02:15.134 : :Julie Can't Make It
00:11:28.104 : :Brandi's Father
00:18:02.080 : :Breakfast Time
00:30:31.788 : :Willam
00:42:31.465 : :Hatchet Men
00:55:44.591 : :The Master Plan
01:08:27.228 : :Comic Book Store
01:17:09.625 : :Fashionable Male
01:24:27.562 : :Gwen



Скачать Тусовщики.из.супермаркета.Mallrats.(Кевин.Смит).[1995.мелодрама.комедия.HDRip-AVC].[MVO]+[Оригинал]+[Sub]x2.torrent без регистрации
Золото ЗОЛОТАЯ РАЗДАЧА! СКАЧАННОЕ НЕ ЗАСЧИТЫВАЕТСЯ! Золото
Дата: Зарегистрирован   [ Тип: внутренний ] Как тут cкачать?
MAGNET ссылка
MAGNET ссылка


Скачать .torrent

15 KB

Статус: проверено DHT
Скачан: торрент - 100 раз, раздача полностью - 16 раз
Размер: 1,45 GB
Оценка:  - (Голосов: 0)
Поблагодарили: 1
Поделиться ссылкой на эту раздачу с друзьями:
В контактеFacebookОдноклассникиTwitterLivejournalМой МирLiveinternet
 

 
Показать сообщения:    


Вы не можете начинать темы
Вы не можете отвечать на сообщения
Вы не можете редактировать свои сообщения
Вы не можете удалять свои сообщения
Вы не можете голосовать в опросах
Вы не можете прикреплять файлы к сообщениям
Вы можете скачивать файлы