Loading...
Error

Скачать 8 миллиметров / 8MM (Джоэл Шумахер) [1999, триллер, криминал, детектив, WEB-DLRip] [Dub (Видеосервис)] торрент без регистрации

 
Статистика раздачи
Размер:  1,46 GB   |    Скачан:  97 раз
Сидов:  1  [  0 KB/s  ]  
 
Автор Сообщение

Marsianka

[] 

Информация о фильме
Название: 8 миллиметров
Оригинальное название: 8MM
Год выхода: 1999
Жанр: триллер, криминал, детектив
Режиссер: Джоэл Шумахер
В ролях: Николас Кейдж, Хоакин Феникс, Джеймс Гандольфини, Петер Стормаре, Энтони Хилд, Кристофер Бауэр, Кэтрин Кинер, Мира Картер, Эми Мортон, Дженни Пауэлл

О фильме:
Свет кинопроектора способен проникать в самые темные уголки человеческой души. На пленке, которая попала в руки частного детектива, запечатлена сцена зверского убийства молодой женщины. Он получает задание установить личность несчастной и выяснить, действительно ли было совершенно преступление. В стремительном мелькании страшных кадров сыщик безуспешно пытается различить лицо главного режиссера. Помимо своей воли детектив становится частью жестокого сценария, где ему отведена роль жертвы. В 8 миллиметрах от гибели любой неосторожный шаг может оказаться роковым…




Страна: США, Германия
Студия: Columbia Pictures Corporation, Global Entertainment Productions GmbH & Company Medien KG, Hofflund/Polone
Продолжительность: 02:03:16
Перевод: Профессиональный (полное дублирование) Видеосервис

Файл
Кодек: XviD
Качество: WEB-DLRip
Видео: 720x304, 23.976 fps, 1496 kbps
Звук: 48 kHz, AC3, 2 ch, ~192 kbps
Общее
Полное имя : 8MM.1999.WEB-DLRip..avi
Формат : AVI
Формат/Информация : Audio Video Interleave
Размер файла : 1,46 Гбайт
Продолжительность : 2 ч. 3 м.
Общий поток : 1697 Кбит/сек
Программа кодирования : VirtualDubMod 1.5.10.2 (build 2542/release)
Библиотека кодирования : VirtualDubMod build 2542/release

Видео
Идентификатор : 0
Формат : MPEG-4 Visual
Профиль формата : Advanced Simple@L5
Параметр BVOP формата : 1
Параметр QPel формата : Нет
Параметр GMC формата : Без точки перехода
Параметр матрицы формата : Выборочная
Идентификатор кодека : XVID
Идентификатор кодека/Подсказка : XviD
Продолжительность : 2 ч. 3 м.
Битрейт : 1496 Кбит/сек
Ширина : 720 пикс.
Высота : 304 пикс.
Соотношение сторон : 2,35:1
Частота кадров : 23,976 кадр/сек
Цветовое пространство : YUV
Подвыборка цветности : 4:2:0
Битовая глубина : 8 бит
Тип развёртки : Прогрессивная
Метод сжатия : С потерями
Бит/(Пиксели*Кадры) : 0.285
Размер потока : 1,29 Гбайт (88%)
Библиотека кодирования : XviD 73

Аудио
Идентификатор : 1
Формат : AC-3
Формат/Информация : Audio Coding 3
Расширение режима : CM (complete main)
Идентификатор кодека : 2000
Продолжительность : 2 ч. 3 м.
Вид битрейта : Постоянный
Битрейт : 192 Кбит/сек
Канал(ы) : 2 канала(ов)
Расположение каналов : Front: L R
Частота : 48,0 КГц
Битовая глубина : 16 бит
Метод сжатия : С потерями
Размер потока : 169 Мбайт (11%)
Выравнивание : Разделение по промежуткам
Продолжительность промежутка : 42 мс. (1,00 видеокадр)
Время предзагрузки промежутка : 500 ms
Релиз от: Leon-masl



Скачать 8.миллиметров.8MM.(Джоэл.Шумахер).[1999.триллер.криминал.детектив.WEB-DLRip].[Dub.(Видеосервис)].torrent без регистрации
Золото ЗОЛОТАЯ РАЗДАЧА! СКАЧАННОЕ НЕ ЗАСЧИТЫВАЕТСЯ! Золото
Дата: Зарегистрирован   [ Тип: внутренний ] Как тут cкачать?
MAGNET ссылка
MAGNET ссылка


Скачать .torrent

15 KB

Статус: проверено DHT
Скачан: торрент - 97 раз, раздача полностью - 8 раз
Размер: 1,46 GB
Оценка:  - (Голосов: 0)
Поблагодарили: 0
Поделиться ссылкой на эту раздачу с друзьями:
В контактеFacebookОдноклассникиTwitterLivejournalМой МирLiveinternet
 

 
Показать сообщения:    


Вы не можете начинать темы
Вы не можете отвечать на сообщения
Вы не можете редактировать свои сообщения
Вы не можете удалять свои сообщения
Вы не можете голосовать в опросах
Вы не можете прикреплять файлы к сообщениям
Вы можете скачивать файлы