Loading...
Error

Скачать Болото / Venom (Джим Гиллеспи) [2005, ужасы, триллер, BDRip-AVC] [MVO]+[DVO]+[AVO]+[Оригинал]+[Sub] торрент без регистрации

 
Статистика раздачи
Размер:  2,17 GB   |    Скачан:  115 раз
Сидов:  1  [  0 KB/s  ]  
 
Автор Сообщение

Marsianka

[] 

Название: Болото
Оригинальное название: Venom
Год выпуска: 2005
Жанр: ужасы, триллер
Выпущено: США, Collision Entertainment, Dimension Films, Outerbanks Entertainment
Режиссер: Джим Гиллеспи
В ролях: Агнес Брукнер, Джонатан Джексон, Лаура Рэмси, Ди Джей Котрона, Рик Крамер, Мэган Гуд, Бижу Филлипс, Метод Мэн, Павел Жайда, Даветта Шервуд, Стэйси Трэвис, Маркус Лайл Браун, Джеймс Пикенс мл., Дебора Дьюк

Перевод: Профессиональный многоголосый, профессиональный двухголосый, авторский

Сюжет фильма
Когда Рей помогал пожилой негритянке в дорожном происшествии на мосту, его покусали змеи, которые были у нее в чемодане. Потеряв сознание, он упал с моста и утонул. Спасённая бабуля ужаснулась, сказав, что в вуду при помощи этих змей, она высасывала злую сторону у плохих людей. Но покусав мужчину, они тем самым переместили в него всю ту плохую энергию, что накопилась в них за многие годы. И теперь оживший Рей, одержимый всеми возможными демонами, будет приносить им кровавые человеческие жертвы…




Файл
Качество: BDRip-AVC (исходник Blu-ray)
Видео: 1024x576, 2 314 Кбит/сек, 23.976 кадр/сек, AVC, x264, High@L4.1, 0.164 Бит/[Пиксели*Кадры], 2pass

Продолжительность: 1:26:52
Аудио 1: AC3 5.1 48 kHz 448 kbps - Профессиональный (двухголосый, закадровый)
Аудио 2: AC3 2.0 48 kHz 192 kbps - Профессиональный (многоголосый, закадровый) СТС
Аудио 3: AC3 2.0 48 kHz 192 kbps - Авторский (одноголосый закадровый) Евгений Гранкин
Аудио 4: AC3 5.1 48 kHz 448 kbps - English
Субтитры: English
Главы: есть
Автор рипа: Сообщество:

Format : Matroska
Format version : Version 2
File size : 2.17 GiB
Duration : 1h 26mn
Overall bit rate : 3 581 Kbps
Movie name : Boloto.(2005).BDRip-AVC.[denis100]
Encoded date : UTC 2014-05-22 06:31:10
Writing application : mkvmerge v5.8.0 ('No Sleep / Pillow') built on Sep 2 2012 15:37:04
Writing library : libebml v1.2.3 + libmatroska v1.3.0

Video
ID : 1
Format : AVC
Format/Info : Advanced Video Codec
Format profile : High@L4.1
Format settings, CABAC : Yes
Format settings, ReFrames : 9 frames
Codec ID : V_MPEG4/ISO/AVC
Duration : 1h 26mn
Bit rate : 2 314 Kbps
Width : 1 024 pixels
Height : 576 pixels
Display aspect ratio : 16:9
Frame rate mode : Constant
Frame rate : 23.976 fps
Color space : YUV
Chroma subsampling : 4:2:0
Bit depth : 8 bits
Scan type : Progressive
Bits/(Pixel*Frame) : 0.164
Stream size : 1.35 GiB (62%)
Title : Boloto.(2005).BDRip-AVC.[denis100]
Writing library : x264 core 138 r2358 9e941d1
Encoding settings : cabac=1 / ref=9 / deblock=1:-3:-3 / analyse=0x3:0x133 / me=umh / subme=11 / psy=1 / psy_rd=1.00:0.15 / mixed_ref=1 / me_range=32 / chroma_me=1 / trellis=2 / 8x8dct=1 / cqm=0 / deadzone=21,11 / fast_pskip=0 / chroma_qp_offset=-3 / threads=6 / lookahead_threads=1 / sliced_threads=0 / nr=0 / decimate=1 / interlaced=0 / bluray_compat=0 / constrained_intra=0 / bframes=8 / b_pyramid=2 / b_adapt=2 / b_bias=0 / direct=3 / weightb=1 / open_gop=0 / weightp=2 / keyint=240 / keyint_min=23 / scenecut=40 / intra_refresh=0 / rc=2pass / mbtree=0 / bitrate=2314 / ratetol=1.0 / qcomp=0.60 / qpmin=0 / qpmax=69 / qpstep=4 / cplxblur=20.0 / qblur=0.5 / ip_ratio=1.40 / pb_ratio=1.30 / aq=1:0.90
Language : English
Default : Yes
Forced : No

Audio #1
ID : 2
Format : AC-3
Format/Info : Audio Coding 3
Mode extension : CM (complete main)
Format settings, Endianness : Big
Codec ID : A_AC3
Duration : 1h 26mn
Bit rate mode : Constant
Bit rate : 448 Kbps
Channel(s) : 6 channels
Channel positions : Front: L C R, Side: L R, LFE
Sampling rate : 48.0 KHz
Bit depth : 16 bits
Compression mode : Lossy
Stream size : 278 MiB (13%)
Title : Профессиональный (двухголосый, закадровый)
Language : Russian
Default : Yes
Forced : No

Audio #2
ID : 3
Format : AC-3
Format/Info : Audio Coding 3
Mode extension : CM (complete main)
Format settings, Endianness : Big
Codec ID : A_AC3
Duration : 1h 26mn
Bit rate mode : Constant
Bit rate : 192 Kbps
Channel(s) : 2 channels
Channel positions : Front: L R
Sampling rate : 48.0 KHz
Bit depth : 16 bits
Compression mode : Lossy
Stream size : 119 MiB (5%)
Title : Профессиональный (многоголосый, закадровый) СТС
Language : Russian
Default : No
Forced : No

Audio #3
ID : 4
Format : AC-3
Format/Info : Audio Coding 3
Mode extension : CM (complete main)
Format settings, Endianness : Big
Codec ID : A_AC3
Duration : 1h 26mn
Bit rate mode : Constant
Bit rate : 192 Kbps
Channel(s) : 2 channels
Channel positions : Front: L R
Sampling rate : 48.0 KHz
Bit depth : 16 bits
Compression mode : Lossy
Stream size : 119 MiB (5%)
Title : Авторский (одноголосый закадровый) Евгений Гранкин
Language : Russian
Default : No
Forced : No

Audio #4
ID : 5
Format : AC-3
Format/Info : Audio Coding 3
Mode extension : CM (complete main)
Format settings, Endianness : Big
Codec ID : A_AC3
Duration : 1h 26mn
Bit rate mode : Constant
Bit rate : 448 Kbps
Channel(s) : 6 channels
Channel positions : Front: L C R, Side: L R, LFE
Sampling rate : 48.0 KHz
Bit depth : 16 bits
Compression mode : Lossy
Stream size : 278 MiB (13%)
Title : English
Language : English
Default : No
Forced : No

Text
ID : 6
Format : UTF-8
Codec ID : S_TEXT/UTF8
Codec ID/Info : UTF-8 Plain Text
Language : English
Default : No
Forced : No

Menu
00:00:00.000 : en:00:00:00.000
00:06:52.370 : en:00:06:52.370
00:13:43.197 : en:00:13:43.197
00:20:09.083 : en:00:20:09.083
00:23:29.366 : en:00:23:29.366
00:29:33.730 : en:00:29:33.730
00:35:03.101 : en:00:35:03.101
00:40:10.366 : en:00:40:10.366
00:47:19.295 : en:00:47:19.295
00:54:00.487 : en:00:54:00.487
01:00:47.394 : en:01:00:47.394
01:05:07.445 : en:01:05:07.445
01:07:41.766 : en:01:07:41.766
01:12:51.784 : en:01:12:51.784
01:15:54.216 : en:01:15:54.216

x264 [info]: frame I:1287 Avg QP:13.58 size: 76061
x264 [info]: frame P:27694 Avg QP:16.36 size: 24026
x264 [info]: frame B:95990 Avg QP:18.78 size: 7651



Скачать Болото.Venom.(Джим.Гиллеспи).[2005.ужасы.триллер.BDRip-AVC].[MVO]+[DVO]+[AVO]+[Оригинал]+[Sub].torrent без регистрации
Золото ЗОЛОТАЯ РАЗДАЧА! СКАЧАННОЕ НЕ ЗАСЧИТЫВАЕТСЯ! Золото
Дата: Зарегистрирован   [ Тип: внутренний ] Как тут cкачать?
MAGNET ссылка
MAGNET ссылка


Скачать .torrent

11 KB

Статус: проверено DHT
Скачан: торрент - 115 раз, раздача полностью - 4 раз
Размер: 2,17 GB
Оценка:  - (Голосов: 0)
Поблагодарили: 1
Поделиться ссылкой на эту раздачу с друзьями:
В контактеFacebookОдноклассникиTwitterLivejournalМой МирLiveinternet
 

 
Показать сообщения:    


Вы не можете начинать темы
Вы не можете отвечать на сообщения
Вы не можете редактировать свои сообщения
Вы не можете удалять свои сообщения
Вы не можете голосовать в опросах
Вы не можете прикреплять файлы к сообщениям
Вы можете скачивать файлы