Loading...
Error

Скачать Зазубренное лезвие / Jagged Edge (Ричард Маркуэнд) [1985, триллер, мелодрама, криминал, детектив, BDRip-AVC] [MVO]x2+[DVO]+[AVO]+[Sub] торрент без регистрации

 
Статистика раздачи
Размер:  3,58 GB   |    Скачан:  95 раз
Сидов:  1  [  0 KB/s  ]  
 
Автор Сообщение

Marsianka

[] 

Информация о фильме
Название: Зазубренное лезвие
Оригинальное название: Jagged Edge
Год выхода: 1985
Жанр: триллер, мелодрама, криминал, детектив
Режиссер: Ричард Маркуэнд
В ролях: Джефф Бриджес, Гленн Клоуз, Питер Койот, Роберт Лоджа, Джон Денер, Лэнс Хенриксен, Аль Руссо, Мария Майензет, Дэйв Остин, Ричард Пэртлоу, Уильям Аллен Янг, Бен Хаммер, Джеймс Карен, Санфорд Дженсен, Вуди Еней, Шарон Хэниан, Сара Каннингэм, Энн Уолкер, Джеймс Уинклер, Брюс Френч, Брэндон Колл, Кристина Хаттер, Джон Фурлонг, Карен Уоннелл, Шарон Мэдден, Гай Бойд, Филлис Эпплгейт, Майкл Дорн, Джон Кларк, Луис Гьямбалво, Дэвид Уайли, Ли Тейлор-Янг, Джей Кримп, Майк Митчел, Дайан Эриксон, Маршалл Кольт, Уолтер Брук, Карен Остин, Билл Грэттон, Джойс Шэнк

О фильме:Чувства лишают нас объективности и ведут к катастрофе там, где нужен исключительно холодный ум. Женщина-адвокат Тедди Варне забыла эту простую истину, влюбившись в своего клиента, богача Джека Форрестера, обвиненного в убийстве жены. Чем сильнее ее страсть к кажущемуся таким искренным и честным парнем Джеку, тем больше у суда поводов сомневаться в его невиновности. Любовь слепа, но даже одурманенная ею Тедди не в силах закрыть глаза на копящиеся странности в деле ее очаровательного клиента. Напряжение нарастает с каждой минутой. Так кто же он, этот Джек Форрестер — жертва необоснованных подозрений, или ловкий и хитрый убийца, пытающийся обвести всех вокруг пальца?..



Страна: США
Студия: Columbia Pictures Corporation, Delphi IV Productions
Продолжительность: 01:48:43
Перевод: Профессиональный многоголосый, профессиональный двухголосый, авторский одноголосый (А. Гаврилов), украинский

Файл
Кодек: MPEG-4 AVC
Качество: BDRip-AVC
Видео: 3500 Кбит/с, 1024х554, 23.976 кадр/с
Аудио #1: Русский (AC3, 2 ch, 192 Кбит/с) / Профессиональный многоголосый (ОРТ)
Аудио #1: Русский (AC3, 2 ch, 192 Кбит/с) / Профессиональный двухголосый (НТВ+)
Аудио #1: Русский (AC3, 2 ch, 192 Кбит/с) / Авторский одноголосый (А. Гаврилов)
Аудио #4: Украинский (AC3, 2 ch, 192 Кбит/с) / Профессиональный многоголосый (Inter)
Аудио #5: Английский (AC3, 6 ch, 448 Кбит/с)
Субтитры: Английские
Семпл
Общее
Уникальный идентификатор : 232353082570935540799528930196059457852 (0xAECD9370C3CAADD68442CF2520B6093C)
Полное имя : F:3Films FРелизыZazubrennoe.lezvie.1985.x264.BDRip.AVC.MediaClub.mkv
Формат : Matroska
Версия формата : Version 4 / Version 2
Размер файла : 3,58 Гбайт
Продолжительность : 1 ч. 48 м.
Общий поток : 4715 Кбит/сек
Название фильма : -= MediaClub =- rip by Lefevr
Дата кодирования : UTC 2014-05-22 14:37:17
Программа кодирования : mkvmerge v6.6.0 ('The Edge Of The In Between') built on Dec 1 2013 17:55:00
Библиотека кодирования : libebml v1.3.0 + libmatroska v1.4.1

Видео
Идентификатор : 1
Формат : AVC
Формат/Информация : Advanced Video Codec
Профиль формата : High@L4.1
Параметр CABAC формата : Да
Параметр ReFrames формата : 9 кадров
Идентификатор кодека : V_MPEG4/ISO/AVC
Продолжительность : 1 ч. 48 м.
Битрейт : 3500 Кбит/сек
Ширина : 1024 пикселя
Высота : 554 пикселя
Соотношение сторон : 1,85:1
Режим частоты кадров : Постоянный
Частота кадров : 23,976 кадра/сек
Цветовое пространство : YUV
Субдискретизация насыщенности : 4:2:0
Битовая глубина : 8 бит
Тип развёртки : Прогрессивная
Бит/(Пиксели*Кадры) : 0.257
Размер потока : 2,59 Гбайт (72%)
Заголовок : Zazubrennoe.lezvie.1985.x264.BDRip.AVC.MediaClub
Библиотека кодирования : x264 core 142 r2409+42 04be48a tMod [8-bit@4:2:0 X86]
Настройки программы : cabac=1 / ref=9 / deblock=1:-3:-3 / analyse=0x3:0x133 / me=umh / subme=11 / psy=1 / fade_compensate=0.00 / psy_rd=1.00:0.25 / mixed_ref=1 / me_range=32 / chroma_me=1 / trellis=2 / 8x8dct=1 / cqm=0 / deadzone=21,11 / fast_pskip=0 / chroma_qp_offset=-4 / threads=6 / lookahead_threads=1 / sliced_threads=0 / nr=0 / decimate=0 / interlaced=0 / bluray_compat=0 / constrained_intra=0 / fgo=0 / bframes=8 / b_pyramid=2 / b_adapt=2 / b_bias=0 / direct=3 / weightb=1 / open_gop=0 / weightp=2 / keyint=240 / keyint_min=23 / scenecut=40 / intra_refresh=0 / rc=2pass / mbtree=0 / bitrate=3500 / ratetol=1.0 / qcomp=0.60 / qpmin=0:0:0 / qpmax=69:69:69 / qpstep=4 / cplxblur=20.0 / qblur=0.5 / ip_ratio=1.40 / pb_ratio=1.30 / aq=1:1.00 / aq-sensitivity=10.00 / aq-factor=1.00:1.00:1.00 / aq2=0 / aq3=0
Язык : English
Default : Да
Forced : Нет

Аудио #1
Идентификатор : 2
Формат : AC-3
Формат/Информация : Audio Coding 3
Расширение режима : CM (complete main)
Параметр Endianness формата : Big
Идентификатор кодека : A_AC3
Продолжительность : 1 ч. 48 м.
Вид битрейта : Постоянный
Битрейт : 192 Кбит/сек
Каналы : 2 канала
Расположение каналов : Front: L R
Частота : 48,0 КГц
Битовая глубина : 16 бит
Метод сжатия : С потерями
Размер потока : 149 Мбайт (4%)
Заголовок : TRACK_01_MVO_RUS_OPT
Язык : Russian
Default : Да
Forced : Да

Аудио #2
Идентификатор : 3
Формат : AC-3
Формат/Информация : Audio Coding 3
Расширение режима : CM (complete main)
Параметр Endianness формата : Big
Идентификатор кодека : A_AC3
Продолжительность : 1 ч. 48 м.
Вид битрейта : Постоянный
Битрейт : 192 Кбит/сек
Каналы : 2 канала
Расположение каналов : Front: L R
Частота : 48,0 КГц
Битовая глубина : 16 бит
Метод сжатия : С потерями
Размер потока : 149 Мбайт (4%)
Заголовок : TRACK_02_DVO_RUS_HTB
Язык : Russian
Default : Нет
Forced : Нет

Аудио #3
Идентификатор : 4
Формат : AC-3
Формат/Информация : Audio Coding 3
Расширение режима : CM (complete main)
Параметр Endianness формата : Big
Идентификатор кодека : A_AC3
Продолжительность : 1 ч. 48 м.
Вид битрейта : Постоянный
Битрейт : 192 Кбит/сек
Каналы : 2 канала
Расположение каналов : Front: L R
Частота : 48,0 КГц
Битовая глубина : 16 бит
Метод сжатия : С потерями
Размер потока : 149 Мбайт (4%)
Заголовок : TRACK_03_AVO_RUS_Gavrilov
Язык : Russian
Default : Нет
Forced : Нет

Аудио #4
Идентификатор : 5
Формат : AC-3
Формат/Информация : Audio Coding 3
Расширение режима : CM (complete main)
Параметр Endianness формата : Big
Идентификатор кодека : A_AC3
Продолжительность : 1 ч. 48 м.
Вид битрейта : Постоянный
Битрейт : 192 Кбит/сек
Каналы : 2 канала
Расположение каналов : Front: L R
Частота : 48,0 КГц
Битовая глубина : 16 бит
Метод сжатия : С потерями
Размер потока : 149 Мбайт (4%)
Заголовок : TRACK_04_MVO_UKR_Inter
Язык : Ukrainian
Default : Нет
Forced : Нет

Аудио #5
Идентификатор : 6
Формат : AC-3
Формат/Информация : Audio Coding 3
Расширение режима : CM (complete main)
Параметр Endianness формата : Big
Идентификатор кодека : A_AC3
Продолжительность : 1 ч. 48 м.
Вид битрейта : Постоянный
Битрейт : 448 Кбит/сек
Каналы : 6 каналов
Расположение каналов : Front: L C R, Side: L R, LFE
Частота : 48,0 КГц
Битовая глубина : 16 бит
Метод сжатия : С потерями
Размер потока : 348 Мбайт (10%)
Заголовок : TRACK_05_ORIGINAL_ENG
Язык : English
Default : Нет
Forced : Нет

Текст
Идентификатор : 7
Формат : UTF-8
Идентификатор кодека : S_TEXT/UTF8
Идентификатор кодека/Информация : UTF-8 Plain Text
Заголовок : TEXT_00_SUB_ENG
Default : Нет
Forced : Нет

Меню
00:00:00.000 : en:00:00:00.000
00:07:52.806 : en:00:07:52.806
00:14:59.774 : en:00:14:59.774
00:19:36.425 : en:00:19:36.425
00:28:40.135 : en:00:28:40.135
00:39:55.184 : en:00:39:55.184
00:41:41.499 : en:00:41:41.499
00:48:52.138 : en:00:48:52.138
00:59:13.216 : en:00:59:13.216
01:02:15.649 : en:01:02:15.649
01:08:43.745 : en:01:08:43.745
01:15:06.377 : en:01:15:06.377
01:21:09.948 : en:01:21:09.948
01:26:17.130 : en:01:26:17.130
01:35:22.258 : en:01:35:22.258
01:42:20.301 : en:01:42:20.301

...last pass...

x264.exe: --pass 2 --bitrate 3500 --preset slow --profile high --level 4.1 --ref 9 --deblock -3:-3 --merange 32 --bframes 8 --trellis 2 --no-fast-pskip --no-dct-decimate --psy-rd 1.00:0.25 --partitions all --subme 11 --no-mbtree --keyint 240 --sar 1:1 --stats "C:1Films CРелизыJagged Edge11111.log" --output "C:1Films CРелизыJagged Edge11111.mkv" "C:Temp305.avs"

avs [info]: 1024x554p 1:1 @ 24000/1001 fps (cfr)
avs [info]: color matrix: undef
x264 [info]: using SAR=1/1
x264 [info]: using cpu capabilities: MMX2 SSE2Fast SSSE3 SSE4.2 AVX
x264 [info]: profile High, level 4.1
x264 [info]: cabac=1 ref=9 deblock=1:-3:-3 analyse=0x3:0x133 me=umh subme=11 psy=1 fade_compensate=0.00 psy_rd=1.00:0.25 mixed_ref=1 me_range=32 chroma_me=1 trellis=2 8x8dct=1 cqm=0 deadzone=21,11 fast_pskip=0 chroma_qp_offset=-4 threads=6 lookahead_threads=1 sliced_threads=0 nr=0 decimate=0 interlaced=0 bluray_compat=0 constrained_intra=0 fgo=0 bframes=8 b_pyramid=2 b_adapt=2 b_bias=0 direct=3 weightb=1 open_gop=0 weightp=2 keyint=240 keyint_min=23 scenecut=40 intra_refresh=0 rc=2pass mbtree=0 bitrate=3500 ratetol=1.0 qcomp=0.60 qpmin=0:0:0 qpmax=69:69:69 qpstep=4 cplxblur=20.0 qblur=0.5 ip_ratio=1.40 pb_ratio=1.30 aq=1:1.00 aq-sensitivity=10.00 aq-factor=1.00:1.00:1.00 aq2=0 aq3=0
x264 [info]: started at Thu May 22 07:05:54 2014

x264 [info]: frame I:1062 Avg QP:17.64 size:108366
x264 [info]: frame P:33465 Avg QP:20.32 size: 38589
x264 [info]: frame B:121857 Avg QP:21.51 size: 11853
x264 [info]: consecutive B-frames: 1.8% 1.7% 6.7% 18.1% 25.9% 42.3% 2.6% 0.6% 0.3%
x264 [info]: mb I I16..4: 23.3% 57.6% 19.1%
x264 [info]: mb P I16..4: 0.8% 10.3% 1.0% P16..4: 28.2% 37.0% 16.8% 3.0% 0.2% skip: 2.7%
x264 [info]: mb B I16..4: 0.0% 0.6% 0.0% B16..8: 38.6% 21.7% 5.3% direct: 6.6% skip:27.1% L0:41.0% L1:45.5% BI:13.5%
x264 [info]: 8x8 transform intra:80.9% inter:44.8%
x264 [info]: direct mvs spatial:99.2% temporal:0.8%
x264 [info]: coded y,uvDC,uvAC intra: 97.5% 90.2% 76.8% inter: 32.9% 20.9% 11.0%
x264 [info]: i16 v,h,dc,p: 8% 3% 37% 52%
x264 [info]: i8 v,h,dc,ddl,ddr,vr,hd,vl,hu: 10% 8% 15% 9% 12% 12% 11% 11% 12%
x264 [info]: i4 v,h,dc,ddl,ddr,vr,hd,vl,hu: 11% 8% 5% 9% 15% 14% 13% 12% 12%
x264 [info]: i8c dc,h,v,p: 50% 18% 16% 16%
x264 [info]: Weighted P-Frames: Y:6.3% UV:2.1%
x264 [info]: ref P L0: 37.7% 11.8% 21.0% 6.7% 7.4% 4.4% 5.3% 2.4% 3.1% 0.3% 0.0%
x264 [info]: ref B L0: 79.0% 9.7% 4.0% 2.5% 1.7% 1.7% 0.9% 0.5%
x264 [info]: ref B L1: 96.2% 3.8%
x264 [info]: kb/s:3496.54
Релиз от: | Автор рипа:



Скачать Зазубренное.лезвие.Jagged.Edge.(Ричард.Маркуэнд).[1985.триллер.мелодрама.криминал.детектив.BDRip-AVC].[MVO]x2+[DVO]+[AVO]+[Sub].torrent без регистрации
Золото ЗОЛОТАЯ РАЗДАЧА! СКАЧАННОЕ НЕ ЗАСЧИТЫВАЕТСЯ! Золото
Дата: Зарегистрирован   [ Тип: внутренний ] Как тут cкачать?
MAGNET ссылка
MAGNET ссылка


Скачать .torrent

18 KB

Статус: проверено DHT
Скачан: торрент - 95 раз, раздача полностью - 2 раз
Размер: 3,58 GB
Оценка:  - (Голосов: 0)
Поблагодарили: 1
Поделиться ссылкой на эту раздачу с друзьями:
В контактеFacebookОдноклассникиTwitterLivejournalМой МирLiveinternet
 

 
Показать сообщения:    


Вы не можете начинать темы
Вы не можете отвечать на сообщения
Вы не можете редактировать свои сообщения
Вы не можете удалять свои сообщения
Вы не можете голосовать в опросах
Вы не можете прикреплять файлы к сообщениям
Вы можете скачивать файлы