Loading...
Error

Скачать Автобусная остановка / Bus Stop (Джошуа Логан) [1956, драма, мелодрама, комедия, BDRip-AVC] [MVO]x2 торрент без регистрации

 
Статистика раздачи
Размер:  2,35 GB   |    Скачан:  103 раза
Сидов:  1  [  0 KB/s  ]  
 
Автор Сообщение

Marsianka

[] 

Автобусная остановка / Bus Stop (1956) BDRip-AVC | iPad | P
«The coming of age of Bo Decker...and the girl who made him a man!»


Название: Автобусная остановка
Оригинальное название: Bus Stop
Год выхода: 1956
Жанр: драма, мелодрама, комедия
Режиссер: Джошуа Логан
В ролях: Мэрилин Монро, Дон Мюррэй, Артур О’Коннелл, Бетти Филд, Айлин Хекарт, Роберт Брэй, Хоуп Лэнг, Ганс Конрид, Макс Шоуолтер, Линда Брэйс

О фильме:
В кафе «Синий Дракон» разбитной ковбой Бо, приехавший в город участвовать в родео, решительно и грубо требует от героини фильма внимания и благосклонности. Шери даже вынуждена сесть на автобус, чтобы бежать из города, но Бо отправляется следом.
Автобус заносит снегом и пассажиры вынуждены провести ночь в кафе, где происходит драка между водителем автобуса, защищающим пассажирку, и ковбоем, преследующим эту женщину. Бо терпит постыдное поражение, он унижен. На следующий день, когда буря закончилась, Бо начинает понимать, что ничего не добьется, если будет действовать как скотина.




Страна: США
Студия: Twentieth Century Fox Film Corporation, Marilyn Monroe Productions

Продолжительность: 1:34:28
Перевод: Русский профессиональный многоголосый закадровый

Файл
Кодек: H.264
Качество: BDRip [576p]
Видео: 1024x404 (2.535) at 23.976 fps, AVC at 3200 kbps
1: АAС 2.0 109 kbps - Русский профессиональный многоголосый закадровый (DVD-Магия)
2: АAС 2.0 109 kbps - Русский профессиональный многоголосый закадровый (OPT)
3: АAС 2.0 160 kbps - Ангийский
Субтитры: отсутствуют

General
Complete name : I:modoutBus.Stop.1956.576p.2P.m4v
Format : MPEG-4
Codec ID : M4V
File size : 2.35 GiB
Duration : 1h 34mn
Overall bit rate mode : Variable
Overall bit rate : 3 567 Kbps
Movie name : Автобусная остановка
Performer : Joshua Logan
Genre : Comedy
ContentType : Short Film
Deion : В кафе "Синий Дракон" разбитной ковбой Бо, приехавший в город участвовать в родео, решительно и грубо требует от героини фильма внимания и благосклонности. Шери даже вынуждена сесть на автобус, чтобы бежать из города, но Бо отправляется следом. Авто
Recorded date : UTC 1956-08-31 08:00:00
Encoded date : UTC 2014-05-22 16:48:14
Tagged date : UTC 2014-05-22 16:54:38
Copyright : Twentieth Century Fox Film Corporation, Marilyn Monroe Productions
Cover : Yes
Comment : «The coming of age of Bo Decker...and the girl who made him a man!»
ContentRating : mpaa|R|400|

Title/Sort : Bus Stop
LongDeion : В кафе "Синий Дракон" разбитной ковбой Бо, приехавший в город участвовать в родео, решительно и грубо требует от героини фильма внимания и благосклонности. Шери даже вынуждена сесть на автобус, чтобы бежать из города, но Бо отправляется следом. Автобус заносит снегом и пассажиры вынуждены провести ночь в кафе, где происходит драка между водителем автобуса, защищающим пассажирку, и ковбоем, преследующим эту женщину. Бо терпит постыдное поражение, он унижен. На следующий день, когда буря закончилась, Бо начинает понимать, что ничего не добьется, если будет действовать как скотина.
AppleStoreCatalogID : 11658
Vendor : Apple:vendor_id:1956-11658

Video
ID : 1
Format : AVC
Format/Info : Advanced Video Codec
Format profile : High@L4.1
Format settings, CABAC : Yes
Format settings, ReFrames : 11 frames
Codec ID : avc1
Codec ID/Info : Advanced Video Coding
Duration : 1h 34mn
Bit rate : 3 182 Kbps
Maximum bit rate : 13.4 Mbps
Width : 1 024 pixels
Height : 404 pixels
Display aspect ratio : 2.535
Frame rate mode : Constant
Frame rate : 23.976 fps
Color space : YUV
Chroma subsampling : 4:2:0
Bit depth : 8 bits
Scan type : Progressive
Bits/(Pixel*Frame) : 0.321
Stream size : 2.10 GiB (89%)
Title : Bus.Stop.1956
Language : English
Encoded date : UTC 2014-05-22 16:48:14
Tagged date : UTC 2014-05-22 16:48:29

Audio #1
ID : 2
Format : AAC
Format/Info : Advanced Audio Codec
Format profile : LC
Codec ID : 40
Duration : 1h 34mn
Bit rate mode : Variable
Bit rate : 98.4 Kbps
Maximum bit rate : 115 Kbps
Channel(s) : 2 channels
Channel positions : Front: L R
Sampling rate : 48.0 KHz
Compression mode : Lossy
Stream size : 66.5 MiB (3%)
Language : English
Encoded date : UTC 2014-05-22 16:48:24
Tagged date : UTC 2014-05-22 16:48:29

Audio #2
ID : 3
Format : AAC
Format/Info : Advanced Audio Codec
Format profile : LC
Codec ID : 40
Duration : 1h 34mn
Bit rate mode : Variable
Bit rate : 109 Kbps
Maximum bit rate : 123 Kbps
Channel(s) : 2 channels
Channel positions : Front: L R
Sampling rate : 48.0 KHz
Compression mode : Lossy
Stream size : 73.9 MiB (3%)
Language : English
Encoded date : UTC 2014-05-22 16:48:26
Tagged date : UTC 2014-05-22 16:48:29

Audio #3
ID : 4
Format : AAC
Format/Info : Advanced Audio Codec
Format profile : LC
Codec ID : 40
Duration : 1h 34mn
Bit rate mode : Variable
Bit rate : 162 Kbps
Maximum bit rate : 189 Kbps
Channel(s) : 2 channels
Channel positions : Front: L R
Sampling rate : 48.0 KHz
Compression mode : Lossy
Stream size : 109 MiB (5%)
Language : English
Encoded date : UTC 2014-05-22 16:46:30
Tagged date : UTC 2014-05-22 16:48:29

Menu
ID : 5
Codec ID : text
Duration : 1h 34mn
Encoded date : UTC 2014-05-22 16:48:55
Tagged date : UTC 2014-05-22 16:48:55
Bit rate mode : CBR
Duration_LastFrame : -32249

x264 [info]: frame I:903 Avg QP:17.03 size: 86278
x264 [info]: frame P:29891 Avg QP:19.43 size: 33675
x264 [info]: frame B:105095 Avg QP:21.19 size: 11132
x264 [info]: consecutive B-frames: 1.7% 0.9% 4.8% 32.7% 25.2% 32.4% 1.2% 0.7% 0.2% 0.1% 0.0% 0.0% 0.0% 0.0% 0.1%
x264 [info]: mb I I16..4: 8.4% 58.5% 33.1%
x264 [info]: mb P I16..4: 0.3% 7.2% 3.2% P16..4: 26.9% 34.2% 19.5% 5.5% 1.0% skip: 2.1%
x264 [info]: mb B I16..4: 0.0% 1.2% 0.7% B16..8: 27.5% 19.2% 3.9% direct: 9.0% skip:38.4% L0:32.6% L1:37.4% BI:30.0%
x264 [info]: 8x8 transform intra:64.2% inter:40.5%
x264 [info]: coded y,uvDC,uvAC intra: 88.0% 91.3% 78.7% inter: 30.7% 24.7% 13.9%
x264 [info]: i16 v,h,dc,p: 11% 10% 26% 53%
x264 [info]: i8 v,h,dc,ddl,ddr,vr,hd,vl,hu: 14% 10% 11% 8% 11% 11% 10% 11% 13%
x264 [info]: i4 v,h,dc,ddl,ddr,vr,hd,vl,hu: 45% 6% 6% 6% 8% 7% 7% 6% 7%
x264 [info]: i8c dc,h,v,p: 39% 23% 21% 17%
x264 [info]: Weighted P-Frames: Y:5.0% UV:3.4%
x264 [info]: ref P L0: 51.0% 11.1% 13.9% 6.4% 4.7% 3.6% 3.0% 1.8% 1.6% 1.4% 1.4% 0.1% 0.0%
x264 [info]: ref B L0: 87.8% 5.0% 2.7% 1.3% 0.9% 0.7% 0.6% 0.4% 0.3% 0.2%
x264 [info]: ref B L1: 96.7% 3.3%
x264 [info]: kb/s:3182.08


Sort Name: Bus Stop
XID: Apple:vendor_id:1956-11658
Content ID: 11658
Copyright: Twentieth Century Fox Film Corporation, Marilyn Monroe Productions
ScreenWriters: Джордж Аксельрод, Уильям Индж
Producers: Бадди Адлер
Director: Джошуа Логан
Cast: Мэрилин Монро, Дон Мюррэй, Артур О’Коннелл, Бетти Филд, Айлин Хекарт, Роберт Брэй, Хоуп Лэнг, Ганс Конрид, Макс Шоуолтер, Линда Брэйс // Marilyn Monroe (Cherie), Don Murray (Beauregard 'Bo' Decker), Arthur O'Connell (Virgil Blessing), Betty Field (Grace), Eileen Heckart (Vera), Robert Bray (Carl), Hope Lange (Elma Duckworth), Hans Conried (Life Magazine Photographer), Max Showalter (Life Magazine Reporter (as Casey Adams))
Rating: R
Long Deion: В кафе "Синий Дракон" разбитной ковбой Бо, приехавший в город участвовать в родео, решительно и грубо требует от героини фильма внимания и благосклонности. Шери даже вынуждена сесть на автобус, чтобы бежать из города, но Бо отправляется следом. Автобус заносит снегом и пассажиры вынуждены провести ночь в кафе, где происходит драка между водителем автобуса, защищающим пассажирку, и ковбоем, преследующим эту женщину. Бо терпит постыдное поражение, он унижен. На следующий день, когда буря закончилась, Бо начинает понимать, что ничего не добьется, если будет действовать как скотина.
Deion: В кафе "Синий Дракон" разбитной ковбой Бо, приехавший в город участвовать в родео, решительно и грубо требует от героини фильма внимания и благосклонности. Шери даже вынуждена сесть на автобус, чтобы бежать из города, но Бо отправляется следом. Авто
Release Date: 1956-08-31T08:00:00Z
Genre: Comedy
Artist: Joshua Logan
Name: Автобусная остановка
Comments: «The coming of age of Bo Decker...and the girl who made him a man!»



Скачать Автобусная.остановка.Bus.Stop.(Джошуа.Логан).[1956.драма.мелодрама.комедия.BDRip-AVC].[MVO]x2.torrent без регистрации
Золото ЗОЛОТАЯ РАЗДАЧА! СКАЧАННОЕ НЕ ЗАСЧИТЫВАЕТСЯ! Золото
Дата: Зарегистрирован   [ Тип: внутренний ] Как тут cкачать?
MAGNET ссылка
MAGNET ссылка


Скачать .torrent

12 KB

Статус: проверено DHT
Скачан: торрент - 103 раз, раздача полностью - 1 раз
Размер: 2,35 GB
Оценка:  - (Голосов: 0)
Поблагодарили: 0
Поделиться ссылкой на эту раздачу с друзьями:
В контактеFacebookОдноклассникиTwitterLivejournalМой МирLiveinternet
 

 
Показать сообщения:    


Вы не можете начинать темы
Вы не можете отвечать на сообщения
Вы не можете редактировать свои сообщения
Вы не можете удалять свои сообщения
Вы не можете голосовать в опросах
Вы не можете прикреплять файлы к сообщениям
Вы можете скачивать файлы