Loading...
Error

Скачать Поющие под дождем / Singin' in the Rain (Стэнли Донен, Джин Келли) [1952, комедия, мелодрама, музыкальный, BDRip-AVC] [MVO]+[DVO]+[AVO(А.Гаврилов)]+[Sub]x2 торрент без регистрации

 
Статистика раздачи
Размер:  3,01 GB   |    Скачан:  100 раз
Сидов:  1  [  0 KB/s  ]  
 
Автор Сообщение

Marsianka

[] 

Информация о фильме
Название: Поющие под дождем
Оригинальное название: Singin' in the Rain
Год выхода: 1952
Жанр: комедия, мелодрама, музыкальный
Режиссер: Стэнли Донен, Джин Келли
В ролях: Джин Келли, Дональд О’Коннор, Дебби Рейнолдс, Джин Хэйген, Миллард Митчел, Сид Черисс, Дуглас Фоули, Рита Морено, Дон Аддамс, Джон Олбрайт, Бетти Аллен, Сью Аллен, Мари Арделл, Бетт Арлен, Джимми Бейтс, Марселла Бекер, Маргарет Берт, Дэвид Блэр, Мэдж Блейк, Гэйл Бонни, Гвен Картер, Билл Чэтхэм, Мэй Кларк, Лайл Кларк, Гарри Коуди, Чик Коллинз, Пэт Конуэй


О фильме:
Основа этого легендарного фильма — дюжина старых песен, написанных для различных бродвейских шоу. Дон Локвуд — популярная звезда немого кино вспоминает о том, как он пришел к славе… но вдруг счастье покидает его — наступила эра звукового кино. Нужно осваивать новые горизонты.



Страна: США, Loew's Inc., Metro-Goldwyn-Mayer (MGM), RKO-Pathe Studios Inc.
Продолжительность: 01:42:49
Перевод: Профессиональный многоголосый, профессиональный двухголосый, авторский
Субтитры: Русские, английские
Дата релиза: 23.05.2014

Файл
Кодек: H.264
Качество: BDRip (AVC)
Видео: MPEG-4 AVC, 2652 Кбит/с, 784x576
Аудио №1: Русский (AC3, 6 ch, 448 Кбит/с) - Профессиональный многоголосый
Аудио №2: Русский (AC3, 2 ch, 192 Кбит/с) - Профессиональный двухголосый
Аудио №3: Русский (AC3, 2 ch, 448 Кбит/с) - Авторский одноголосый (А.Гаврилов)
Аудио №4: Английский (AC3, 6 ch, 448 Кбит/с)
Общее
Уникальный идентификатор : 189629457972568465014796227380968436555 (0x8EA94E1DF707CCE297CED2DE7B28334B)
Полное имя : D:7Pojushhie.pod.dozhdem.1952.x264.BDRip.(AVC).ExKinoRay.mkv
Формат : Matroska
Размер файла : 3,01 Гбайт
Продолжительность : 1 ч. 42 м.
Общий поток : 4189 Кбит/сек
Название фильма : Pojushhie.pod.dozhdem.1952.x264.BDRip.(AVC).ExKinoRay
Дата кодирования : UTC 2014-04-21 18:33:34
Программа кодирования : mkvmerge v4.0.0 ('The Stars were mine') сборка от Jun 6 2010 16:18:42
Библиотека кодирования : libebml v1.0.0 + libmatroska v1.0.0

Видео
Идентификатор : 1
Формат : AVC
Формат/Информация : Advanced Video Codec
Профиль формата : High@L4.1
Параметр CABAC формата : Да
Параметр ReFrames формата : 8 кадров
Идентификатор кодека : V_MPEG4/ISO/AVC
Продолжительность : 1 ч. 42 м.
Битрейт : 2652 Кбит/сек
Ширина : 784 пикс.
Высота : 576 пикс.
Соотношение сторон : 4:3
Частота кадров : 23,976 кадр/сек
Цветовое пространство : YUV
Подвыборка цветности : 4:2:0
Битовая глубина : 8 бит
Тип развёртки : Прогрессивная
Бит/(Пиксели*Кадры) : 0.245
Размер потока : 1,85 Гбайт (61%)
Заголовок : Rip by Enigma-Vladislav71
Библиотека кодирования : x264 core 125 r2208 d9d2288
Настройки программы : cabac=1 / ref=8 / deblock=1:-2:-2 / analyse=0x3:0x133 / me=umh / subme=11 / psy=1 / psy_rd=1.00:0.00 / mixed_ref=1 / me_range=48 / chroma_me=1 / trellis=2 / 8x8dct=1 / cqm=0 / deadzone=21,11 / fast_pskip=0 / chroma_qp_offset=-2 / threads=3 / lookahead_threads=1 / sliced_threads=0 / nr=0 / decimate=0 / interlaced=0 / bluray_compat=0 / constrained_intra=0 / bframes=8 / b_pyramid=2 / b_adapt=2 / b_bias=0 / direct=3 / weightb=1 / open_gop=0 / weightp=2 / keyint=240 / keyint_min=23 / scenecut=40 / intra_refresh=0 / rc=2pass / mbtree=0 / bitrate=2652 / ratetol=1.0 / qcomp=0.60 / qpmin=10 / qpmax=51 / qpstep=4 / cplxblur=20.0 / qblur=0.5 / ip_ratio=1.40 / pb_ratio=1.30 / aq=1:1.00
Язык : English

Аудио #1
Идентификатор : 2
Формат : AC-3
Формат/Информация : Audio Coding 3
Расширение режима : CM (complete main)
Идентификатор кодека : A_AC3
Продолжительность : 1 ч. 42 м.
Вид битрейта : Постоянный
Битрейт : 448 Кбит/сек
Каналы : 6 каналов
Расположение каналов : Front: L C R, Side: L R, LFE
Частота : 48,0 КГц
Битовая глубина : 16 бит
Метод сжатия : С потерями
Размер потока : 329 Мбайт (11%)
Заголовок : Профессиональный многоголосый
Язык : Russian

Аудио #2
Идентификатор : 3
Формат : AC-3
Формат/Информация : Audio Coding 3
Расширение режима : CM (complete main)
Идентификатор кодека : A_AC3
Продолжительность : 1 ч. 42 м.
Вид битрейта : Постоянный
Битрейт : 192 Кбит/сек
Каналы : 2 канала
Расположение каналов : Front: L R
Частота : 48,0 КГц
Битовая глубина : 16 бит
Метод сжатия : С потерями
Размер потока : 141 Мбайт (5%)
Заголовок : Профессиональный двухголосый
Язык : Russian

Аудио #3
Идентификатор : 4
Формат : AC-3
Формат/Информация : Audio Coding 3
Расширение режима : CM (complete main)
Идентификатор кодека : A_AC3
Продолжительность : 1 ч. 42 м.
Вид битрейта : Постоянный
Битрейт : 448 Кбит/сек
Каналы : 2 канала
Расположение каналов : Front: L R
Частота : 48,0 КГц
Битовая глубина : 16 бит
Метод сжатия : С потерями
Размер потока : 329 Мбайт (11%)
Заголовок : Авторский одноголосый (А.Гаврилов)
Язык : Russian

Аудио #4
Идентификатор : 5
Формат : AC-3
Формат/Информация : Audio Coding 3
Расширение режима : CM (complete main)
Идентификатор кодека : A_AC3
Продолжительность : 1 ч. 42 м.
Вид битрейта : Постоянный
Битрейт : 448 Кбит/сек
Каналы : 6 каналов
Расположение каналов : Front: L C R, Side: L R, LFE
Частота : 48,0 КГц
Битовая глубина : 16 бит
Метод сжатия : С потерями
Размер потока : 329 Мбайт (11%)
Заголовок : Английский
Язык : English

Текст #1
Идентификатор : 6
Формат : UTF-8
Идентификатор кодека : S_TEXT/UTF8
Идентификатор кодека/Информация : UTF-8 Plain Text
Язык : Russian

Текст #2
Идентификатор : 7
Формат : UTF-8
Идентификатор кодека : S_TEXT/UTF8
Идентификатор кодека/Информация : UTF-8 Plain Text
Язык : English
Релиз от:

Авторы релиза:



Скачать Поющие.под.дождем.Singin'.in.the.Rain.(Стэнли.Донен.Джин.Келли).[1952.комедия.мелодрама.музыкальный.BDRip-AVC].[MVO]+[DVO]+[AVO(А.Гаврилов)]+[Sub]x2.torrent без регистрации
Золото ЗОЛОТАЯ РАЗДАЧА! СКАЧАННОЕ НЕ ЗАСЧИТЫВАЕТСЯ! Золото
Дата: Зарегистрирован   [ Тип: внутренний ] Как тут cкачать?
MAGNET ссылка
MAGNET ссылка


Скачать .torrent

16 KB

Статус: проверено DHT
Скачан: торрент - 100 раз, раздача полностью - 3 раз
Размер: 3,01 GB
Оценка:  - (Голосов: 0)
Поблагодарили: 0
Поделиться ссылкой на эту раздачу с друзьями:
В контактеFacebookОдноклассникиTwitterLivejournalМой МирLiveinternet
 

 
Показать сообщения:    


Вы не можете начинать темы
Вы не можете отвечать на сообщения
Вы не можете редактировать свои сообщения
Вы не можете удалять свои сообщения
Вы не можете голосовать в опросах
Вы не можете прикреплять файлы к сообщениям
Вы можете скачивать файлы