Loading...
Error

Скачать Амистад / Amistad (Стивен Спилберг) [1997, драма, детектив, история, HDRip-AVC] [MVO]+[Оригинал]+[Sub] торрент без регистрации

 
Статистика раздачи
Размер:  2,18 GB   |    Скачан:  111 раз
Сидов:  1  [  0 KB/s  ]  
 
Автор Сообщение

Marsianka

[] 

Амистад / Amistad (1997) HDRip-AVC

Информация о фильме
Название: Амистад
Оригинальное название: Amistad
Год выхода: 1997
Жанр: драма, детектив, история
Режиссер: Стивен Спилберг

В ролях: Морган Фримен, Найджел Хоторн, Энтони Хопкинс, Джимон Хунсу, Мэттью МакКонахи, Дэвид Пэймер, Пит Постлетуэйт, Стеллан Скарсгард, Разаак Адоти, Анна Пакуин, Томас Милиан, Чиветел Эджиофор, Джон Ортиз, Пол Гилфойл, Ксандер Беркли, Остин Пендлтон, Джейк Уэбер, Кевин Дж. О`Коннор...

О фильме: Основаный на реальных событиях, фильм повествует о невероятном путешествии рабов африканцев, которые захватывают работорговый корабль «Амистад» и пытаются вернуться на родину.

После того как власти наконец арестовывают корабль, рабов отправляют в Соединенные Штаты, где они попадают в тюрьму по обвинению в убийстве. Начинается процесс, затрагивающий основы американского правосудия и привлекающий внимание всей нации. Но для самих подсудимых это прежде всего борьба за свои права и свободу.



Страна: США
Продолжительность: 02:34:43
Перевод: Профессиональный (многоголосый закадровый) СТС, Оригинал (Английский)

Файл
Кодек: x.264
Качество: HDRip-AVC
Видео: 928x496 (1,85:1), 23,976 fps, 1635 kbps, 0.148 bit/pixel
Аудио #1: 48 kHz, AC3 Dolby Digital, 2 ch, ~192.00 kbps | Русский
Аудио #2: 48 kHz, AC3 Dolby Digital, 2 ch, ~192.00 kbps | Английский
Субтитры: Русские, Английские (отключаемые)
&
Общее
Уникальный идентификатор : 209108841278537499169449427952799962416 (0x9D50E5DD219A7CC0B15B0110E2A9D530)
Полное имя : D:Amistad.1997.HDRip-AVC.mkv
Формат : Matroska
Версия формата : Version 4 / Version 2
Размер файла : 2,18 Гбайт
Продолжительность : 2 ч. 34 м.
Общий поток : 2020 Кбит/сек
Название фильма : Амистад / Amistad (1997) HDRip-AVC rip by Rulya74
Дата кодирования : UTC 2014-05-23 14:09:38
Программа кодирования : mkvmerge v6.5.0 ('Isn't she lovely') built on Oct 20 2013 12:50:05
Библиотека кодирования : libebml v1.3.0 + libmatroska v1.4.1

Видео
Идентификатор : 1
Формат : AVC
Формат/Информация : Advanced Video Codec
Профиль формата : High@L4.1
Параметр CABAC формата : Да
Параметр ReFrames формата : 12 кадров
Идентификатор кодека : V_MPEG4/ISO/AVC
Продолжительность : 2 ч. 34 м.
Битрейт : 1635 Кбит/сек
Ширина : 928 пикселей
Высота : 496 пикселей
Соотношение сторон : 1,85:1
Режим частоты кадров : Постоянный
Частота кадров : 23,976 кадра/сек
Цветовое пространство : YUV
Субдискретизация насыщенности : 4:2:0
Битовая глубина : 8 бит
Тип развёртки : Прогрессивная
Бит/(Пиксели*Кадры) : 0.148
Размер потока : 1,72 Гбайт (79%)
Библиотека кодирования : x264 core 138 r2358 9e941d1
Настройки программы : cabac=1 / ref=12 / deblock=1:-1:-1 / analyse=0x3:0x113 / me=umh / subme=11 / psy=1 / psy_rd=1.00:0.00 / mixed_ref=1 / me_range=48 / chroma_me=1 / trellis=2 / 8x8dct=1 / cqm=0 / deadzone=21,11 / fast_pskip=0 / chroma_qp_offset=-2 / threads=14 / lookahead_threads=3 / sliced_threads=0 / nr=0 / decimate=1 / interlaced=0 / bluray_compat=0 / constrained_intra=0 / bframes=10 / b_pyramid=2 / b_adapt=2 / b_bias=0 / direct=1 / weightb=1 / open_gop=0 / weightp=2 / keyint=240 / keyint_min=23 / scenecut=40 / intra_refresh=0 / rc_lookahead=40 / rc=2pass / mbtree=1 / bitrate=1635 / ratetol=1.0 / qcomp=0.60 / qpmin=0 / qpmax=69 / qpstep=4 / cplxblur=20.0 / qblur=0.5 / vbv_maxrate=62500 / vbv_bufsize=78125 / nal_hrd=none / ip_ratio=1.40 / aq=1:1.00
Default : Да
Forced : Нет

Аудио #1
Идентификатор : 2
Формат : AC-3
Формат/Информация : Audio Coding 3
Расширение режима : CM (complete main)
Параметр Endianness формата : Big
Идентификатор кодека : A_AC3
Продолжительность : 2 ч. 34 м.
Вид битрейта : Постоянный
Битрейт : 192 Кбит/сек
Каналы : 2 канала
Расположение каналов : Front: L R
Частота : 48,0 КГц
Битовая глубина : 16 бит
Метод сжатия : С потерями
Размер потока : 212 Мбайт (10%)
Заголовок : Профессиональный (многоголосый закадровый) СТС
Язык : Russian
Default : Да
Forced : Нет

Аудио #2
Идентификатор : 3
Формат : AC-3
Формат/Информация : Audio Coding 3
Расширение режима : CM (complete main)
Параметр Endianness формата : Big
Идентификатор кодека : A_AC3
Продолжительность : 2 ч. 34 м.
Вид битрейта : Постоянный
Битрейт : 192 Кбит/сек
Каналы : 2 канала
Расположение каналов : Front: L R
Частота : 48,0 КГц
Битовая глубина : 16 бит
Метод сжатия : С потерями
Размер потока : 212 Мбайт (10%)
Заголовок : Оригинал
Язык : English
Default : Нет
Forced : Нет

Текст #1
Идентификатор : 4
Формат : UTF-8
Идентификатор кодека : S_TEXT/UTF8
Идентификатор кодека/Информация : UTF-8 Plain Text
Язык : Russian
Default : Да
Forced : Нет

Текст #2
Идентификатор : 5
Формат : UTF-8
Идентификатор кодека : S_TEXT/UTF8
Идентификатор кодека/Информация : UTF-8 Plain Text
Язык : English
Default : Нет
Forced : Нет

Меню
00:00:00.000 : en:Chapter 01
00:05:21.738 : en:Chapter 02
00:13:04.784 : en:Chapter 03
00:22:51.453 : en:Chapter 04
00:28:03.973 : en:Chapter 05
00:36:28.644 : en:Chapter 06
00:46:25.449 : en:Chapter 07
00:50:00.330 : en:Chapter 08
01:00:14.736 : en:Chapter 09
01:08:57.883 : en:Chapter 10
01:16:28.083 : en:Chapter 11
01:26:34.105 : en:Chapter 12
01:32:00.890 : en:Chapter 13
01:41:00.679 : en:Chapter 14
01:45:48.884 : en:Chapter 15
01:49:31.690 : en:Chapter 16
01:54:32.991 : en:Chapter 17
01:59:41.549 : en:Chapter 18
02:01:57.184 : en:Chapter 19
02:08:11.225 : en:Chapter 20
02:13:57.612 : en:Chapter 21
02:18:53.325 : en:Chapter 22
02:23:55.376 : en:Chapter 23
02:27:47.650 : en:Chapter 24



Скачать Амистад.Amistad.(Стивен.Спилберг).[1997.драма.детектив.история.HDRip-AVC].[MVO]+[Оригинал]+[Sub].torrent без регистрации
Золото ЗОЛОТАЯ РАЗДАЧА! СКАЧАННОЕ НЕ ЗАСЧИТЫВАЕТСЯ! Золото
Дата: Зарегистрирован   [ Тип: внутренний ] Как тут cкачать?
MAGNET ссылка
MAGNET ссылка


Скачать .torrent

11 KB

Статус: проверено DHT
Скачан: торрент - 111 раз, раздача полностью - 39 раз
Размер: 2,18 GB
Оценка:  - (Голосов: 0)
Поблагодарили: 1
Поделиться ссылкой на эту раздачу с друзьями:
В контактеFacebookОдноклассникиTwitterLivejournalМой МирLiveinternet
 

 
Показать сообщения:    


Вы не можете начинать темы
Вы не можете отвечать на сообщения
Вы не можете редактировать свои сообщения
Вы не можете удалять свои сообщения
Вы не можете голосовать в опросах
Вы не можете прикреплять файлы к сообщениям
Вы можете скачивать файлы