Loading...
Error

Скачать От заката до рассвета / From Dusk Till Dawn: The Series (сезон 1, серия 1-10 из 10) [2014, Ужасы, боевик, криминал, WEBDLRip-AVC 1080р] [DD5.1] [MVO] [NewStudio] торрент без регистрации

 
Статистика раздачи
Размер:  20,49 GB   |    Скачан:  2025 раз

Полного источника не было: 22 минуты

 
Автор Сообщение

Nikolai.Baranov

[] 





От заката до рассвета / From Dusk Till Dawn: The Series




Год выпуска: 2014
Выпущено: США, FactoryMade Ventures, Miramax Films, Rodriguez International Pictures
Жанр:: Ужасы, боевик, криминал
Продолжительность: 00:45:00
Сезон:: 1
Серия: : 1-10
Количество серий в сезоне:: 10
Озвучка:Профессиональная многоголосая закадровая(NewStudio)Петр Иващенко (Гланц), Константин Погодаев, Анна Тух
Субтитры: НЕТ



Режиссер:: Роберт Родригес, Джо Менендес, Эдуардо Санчес

В ролях:: Ди Джей Котрона, Зейн Холц, Джесси Гарсиа, Эйса Гонсалес, Уилмер Вальдеррама, Эдрианн Палики, Джейк Бьюзи, Дон Джонсон, Мэдисон Девенпорт, Лэйн Гаррисон, Роберт Патрик, Брэндон Су Ху


Сет Гекко, грабитель банков, и его не совсем психически стабильный братец Ричард находятся в розыске. Разыскивают их не только ФБР, но и техасские законники — шериф МакГроу и рейнджер Гонсалес, которые утраивают усилия после того, как после очередного ограбления, устроенного братьями Гекко, в банке остается несколько трупов. Пытаясь удрать в Мексику, Гекко сталкиваются с бывшим священником Джейкобом Фуллером и его семьей, которых берут в заложники и в их же трейлере отправляются к мексиканской границе. Заехав в небольшой стрип-клуб по дороге, они неудачно знакомятся с целой прорвой жаждущих крови вампиров и пытаются хотя бы дожить до рассвета, не говоря уже о том, чтобы истребить как можно больше чудовищ.

Качество : WEB-DLRip-AVC 1080p
Формат: MPEG-4
Видео кодек: H264
Видео: 6006Кбит/сек,1920х1080(16.9),в 25.000кадр/сек,AVC(Baseline@L4.0)(1Ref Frames)
Аудио кодек: AAC
Аудио Russian Dolby Digital 5.1:421Кбит/сек,48.0КГц,6каналов,AAC,(Version4)(LC)


Звуковая дорожка сделана путем наложения чистого голоса озвучивателей на центральный канал оригинальной дорожки. Качество идентично звуковой дорожке.



01. Пилот / Pilot
02. Кровные узы / Blood Runs Thick
03. Госпожа / Mistress
04. В дорогу / Let's Get Ramblin'
05. Самодостаточность / Self-Contained
06. Место мертвых дорог / Place of Dead Roads
07. Адское логово / Pandemonium
08. Покорение / La Conquista
09. Медвежатник / Boxman
10. Добыча / The Take



General
Полное имя : D:\У Ж А С Ы\От заката до рассвета\From.Dusk.Till.Dawn_2014_S01_RUS[NewStudio.TV]_DD5.1_x264_Nikolai.Baranov_WEB-DLRip-AVC_(1080p)\From.Dusk.Till.Dawn_2014_S01Е01_RUS[NewStudio.TV]_DD5.1_x264_Nikolai.Baranov_WEB-DLRip-AVC_(1080p).mp4
Формат : MPEG-4
Профиль формата : Base Media
Идентификатор кодека : isom
Размер файла : 1.98 GiB
Продолжительность : 44mn 9s
Режим общего битрейта : Variable
Общий поток : 6 432 Kbps
Название фильма : Спираль - 1С…11 - Чёрный дождь
Дата кодирования : UTC 2014-03-24 08:06:19
Дата пометки : UTC 2014-03-24 08:06:19
Программа кодирования : Lavf51.12.1

Video
Идентификатор : 1
Формат : AVC
Формат/Информация : Advanced Video Codec
Профиль формата : Baseline@L4.0
Параметр CABAC формата : No
Параметр ReFrames формата : 1 frame
Параметр GOP формата : M=1, N=12
Идентификатор кодека : avc1
Идентификатор кодека/Информация : Advanced Video Coding
Продолжительность : 44mn 9s
Битрейт : 6 006 Kbps
Ширина : 1 920 pixels
Высота : 1 080 pixels
Соотношение сторон : 16:9
Режим частоты кадров : Constant
Частота кадров : 25.000 fps
Цветовое пространство : YUV
Субдискретизация насыщенности : 4:2:0
Битовая глубина : 8 bits
Тип развёртки : Progressive
Бит/(Пиксели*Кадры) : 0.116
Размер потока : 1.85 GiB (93%)
Язык : English
Дата кодирования : UTC 2014-03-24 08:06:19
Дата пометки : UTC 2014-03-24 08:06:19

Audio
Идентификатор : 2
Формат : AAC
Формат/Информация : Advanced Audio Codec
Профиль формата : LC
Идентификатор кодека : 40
Продолжительность : 44mn 9s
Вид битрейта : Variable
Битрейт : 421 Kbps
Каналы : 2 channels
Channel(s)_Original : 6 channels
Расположение каналов : Front: L C R, Side: L R, LFE
Частота : 48.0 KHz
Метод сжатия : Lossy
Размер потока : 133 MiB (7%)
Язык : Russian
Дата кодирования : UTC 2014-03-24 08:06:19
Дата пометки : UTC 2014-03-24 08:06:19








Релиз от: Nikolai.Baranov










Скачать От.заката.до.рассвета.From.Dusk.Till.Dawn.The.Series.(сезон.1.серия.1-10.из.10).[2014.Ужасы.боевик.криминал.WEBDLRip-AVC.1080р].[DD5.1].[MVO].[NewStudio].torrent без регистрации
Золото ЗОЛОТАЯ РАЗДАЧА! СКАЧАННОЕ НЕ ЗАСЧИТЫВАЕТСЯ! Золото
Дата: Зарегистрирован   [ Тип: внутренний ] Как тут cкачать?
MAGNET ссылка
MAGNET ссылка


Скачать .torrent

53 KB

Статус: проверено DHT
Скачан: торрент - 2025 раз, раздача полностью - 69 раз
Размер: 20,49 GB
Оценка:  - (Голосов: 0)
Поблагодарили: 4
Поделиться ссылкой на эту раздачу с друзьями:
В контактеFacebookОдноклассникиTwitterLivejournalМой МирLiveinternet
 

 

KIT

[] 

Сегодня узнал про этот сериал,скачаю помогу раздать,второй сезон будет переведен и выложен?
 
Показать сообщения:    


Вы не можете начинать темы
Вы не можете отвечать на сообщения
Вы не можете редактировать свои сообщения
Вы не можете удалять свои сообщения
Вы не можете голосовать в опросах
Вы не можете прикреплять файлы к сообщениям
Вы можете скачивать файлы