Loading...
Error

Скачать Чернильное сердце / Inkheart (Иэн Софтли) [2008, фэнтези, приключения, семейный, BDRip-AVC] [Dub] [Лицензия]+[Sub]x2 торрент без регистрации

 
Статистика раздачи
Размер:  2,17 GB   |    Скачан:  133 раза
Сидов:  1  [  0 KB/s  ]  
 
Автор Сообщение

Marsianka

[] 

Информация о фильме
Название: Чернильное сердце
Оригинальное название: Inkheart
Год выпуска: 2008
Жанр: фэнтези, приключения, семейный
Выпущено: Германия, США, Великобритания, New Line Cinema, Internationale Filmproduktion Blackbird Erste
Режиссер: Иэн Софтли
В ролях: Брендан Фрейзер, Сиенна Гиллори, Элиза Беннетт, Ричард Стрэйндж, Пол Беттани, Хелен Миррен, Рафи Гаврон, Мэтт Кинг, Стив Спайрс, Джейми Формен

О фильме: Книжный лекарь Мортимер «Мо» Фольхарт и его 12-летняя дочь Мегги обожают книги. Но кроме этой общей страсти они еще и обладают удивительным даром - оживлять героев со страниц прочтенных ими вслух книг. Но не всё так просто, ведь когда герой из книги оживает, его место на книжных страницах должен занять настоящий человек.



Качество: BDRip (AVC)
Видео: MPEG-4 AVC, 2035 Кбит/с, 1024х430
Аудио: Русский, английский (АС3, 6 ch, 448 Кбит/с)
Продолжительность: 01:46:10
Перевод: Дублированный
Субтитры: Русские, украинские
General
Unique ID : 178577288345462894964971757565004285728 (0x8658BC1560BAA5BE8F1A4EFC53310720)
Complete name : C:Inkheart.2008.BDRip.AVC.ExKinoRay.mkv
Format : Matroska
Format version : Version 2
File size : 2.17 GiB
Duration : 1h 46mn
Overall bit rate : 2 932 Kbps
Movie name : Inkheart from ExKinoRay
Encoded date : UTC 2014-05-26 04:00:04
Writing application : mkvmerge v4.9.1 ('Ich will') built on Jul 11 2011 23:53:15
Writing library : libebml v1.2.1 + libmatroska v1.1.1
Attachment : Yes / Yes / Yes

Video
ID : 1
Format : AVC
Format/Info : Advanced Video Codec
Format profile : High@L4.1
Format settings, CABAC : Yes
Format settings, ReFrames : 9 frames
Codec ID : V_MPEG4/ISO/AVC
Duration : 1h 46mn
Bit rate : 2 035 Kbps
Width : 1 024 pixels
Height : 430 pixels
Display aspect ratio : 2.40:1
Frame rate mode : Constant
Frame rate : 23.976 fps
Color space : YUV
Chroma subsampling : 4:2:0
Bit depth : 8 bits
Scan type : Progressive
Bits/(Pixel*Frame) : 0.193
Stream size : 1.46 GiB (67%)
Title : Enigma-Vladislav71
Writing library : x264 core 116 r2044 392e762
Encoding settings : cabac=1 / ref=9 / deblock=1:-2:-2 / analyse=0x3:0x113 / me=umh / subme=9 / psy=1 / psy_rd=1.00:0.20 / mixed_ref=1 / me_range=32 / chroma_me=1 / trellis=2 / 8x8dct=1 / cqm=0 / deadzone=21,11 / fast_pskip=0 / chroma_qp_offset=-3 / threads=12 / sliced_threads=0 / nr=0 / decimate=0 / interlaced=0 / bluray_compat=0 / constrained_intra=0 / bframes=8 / b_pyramid=2 / b_adapt=2 / b_bias=0 / direct=3 / weightb=1 / open_gop=0 / weightp=2 / keyint=240 / keyint_min=23 / scenecut=40 / intra_refresh=0 / rc=2pass / mbtree=0 / bitrate=2035 / ratetol=1.0 / qcomp=0.60 / qpmin=0 / qpmax=69 / qpstep=4 / cplxblur=20.0 / qblur=0.5 / ip_ratio=1.40 / pb_ratio=1.30 / aq=1:1.00
Default : Yes
Forced : No

Audio #1
ID : 2
Format : AC-3
Format/Info : Audio Coding 3
Mode extension : CM (complete main)
Format settings, Endianness : Big
Codec ID : A_AC3
Duration : 1h 46mn
Bit rate mode : Constant
Bit rate : 448 Kbps
Channel(s) : 6 channels
Channel positions : Front: L C R, Side: L R, LFE
Sampling rate : 48.0 KHz
Bit depth : 16 bits
Compression mode : Lossy
Stream size : 340 MiB (15%)
Language : Russian
Default : Yes
Forced : No

Audio #2
ID : 3
Format : AC-3
Format/Info : Audio Coding 3
Mode extension : CM (complete main)
Format settings, Endianness : Big
Codec ID : A_AC3
Duration : 1h 46mn
Bit rate mode : Constant
Bit rate : 448 Kbps
Channel(s) : 6 channels
Channel positions : Front: L C R, Side: L R, LFE
Sampling rate : 48.0 KHz
Bit depth : 16 bits
Compression mode : Lossy
Stream size : 340 MiB (15%)
Language : English
Default : No
Forced : No

Text #1
ID : 4
Format : UTF-8
Codec ID : S_TEXT/UTF8
Codec ID/Info : UTF-8 Plain Text
Language : Russian
Default : No
Forced : No

Text #2
ID : 5
Format : UTF-8
Codec ID : S_TEXT/UTF8
Codec ID/Info : UTF-8 Plain Text
Language : Ukrainian
Default : No
Forced : No
Релиз от:

Авторы релиза:



Скачать Чернильное.сердце.Inkheart.(Иэн.Софтли).[2008.фэнтези.приключения.семейный.BDRip-AVC].[Dub].[Лицензия]+[Sub]x2.torrent без регистрации
Золото ЗОЛОТАЯ РАЗДАЧА! СКАЧАННОЕ НЕ ЗАСЧИТЫВАЕТСЯ! Золото
Дата: Зарегистрирован   [ Тип: внутренний ] Как тут cкачать?
MAGNET ссылка
MAGNET ссылка


Скачать .torrent

11 KB

Статус: проверено DHT
Скачан: торрент - 133 раз, раздача полностью - 153 раз
Размер: 2,17 GB
Оценка:  - (Голосов: 0)
Поблагодарили: 3
Поделиться ссылкой на эту раздачу с друзьями:
В контактеFacebookОдноклассникиTwitterLivejournalМой МирLiveinternet
 

 
Показать сообщения:    


Вы не можете начинать темы
Вы не можете отвечать на сообщения
Вы не можете редактировать свои сообщения
Вы не можете удалять свои сообщения
Вы не можете голосовать в опросах
Вы не можете прикреплять файлы к сообщениям
Вы можете скачивать файлы