Loading...
Error

Скачать Хэллоуин 6: Проклятие Майкла Майерса / Halloween: The Curse of Michael Myers (Джо Чаппелль) [1995, ужасы, триллер, BDRip-AVC] [DVO]x2+[AVO] торрент без регистрации

 
Статистика раздачи
Размер:  2,44 GB   |    Скачан:  98 раз
Сидов:  1  [  0 KB/s  ]  
 
Автор Сообщение

Marsianka

[] 

Информация о фильме
Название: Хэллоуин 6: Проклятие Майкла Майерса
Оригинальное название: Halloween: The Curse of Michael Myers
Год выхода: 1995
Жанр: ужасы, триллер
Режиссер: Джо Чаппелль
В ролях: Дональд Плезенс, Пол Радд, Марианн Хэйгэн, Митч Райан, Ким Дарби, Брэдфорд Инглиш, Кейт Богарт, Мэрайя О’Брайэн, Лео Гетер, Дж.С. Брэнди, Девин Гарднер, Сьюзэн Свифт, Джордж П. Вилбур, Джэнис Никрем, Алан Эчеверриа, Шери Хикс, Том Проктер, Брайан Моррис, Ли Джу Чю, Кристин Саммерс, Элиза Дональсон

О фильме: Продолжение известного триллера о безжалостном маньяке Майкле Майерсе, который в очередной раз появляется в маленьком американском городке Хэддонфилд накануне праздника Дня Всех Святых....



Страна: США
Студия: Halloween VI Productions, Miramax Films, Nightfall
Продолжительность: 01:28:11
Перевод: Профессиональный двухголосый, авторский одноголосый (Визгунов)

Файл
Кодек: MPEG-4 AVC
Качество: BDRip-AVC
Видео: 3200 Кбит/с, 1024x556, 24.000 кадр/с

Семпл
Аудио #1: Русский (AC3, 2 ch, 192 Кбит/с) / Профессиональный двухголосый (НТВ+)
Аудио #2: Русский (AC3, 2 ch, 192 Кбит/с) / Профессиональный двухголосый (Премьер Видео Фильм)
Аудио #3: Русский (AC3, 2 ch, 192 Кбит/с) / Авторский одноголосый (Визгунов)
Аудио #4: Английский (AC3, 2 ch, 192 Кбит/с)
Общее
Уникальный идентификатор : 217010986293256731823807534231970858168 (0xA342CBB17178CBCB88F6EE31DDF344B8)
Полное имя : D:Мои РипыHjellouin.6.1995.x264.BDRip.AVC.MediaClub.mkv
Формат : Matroska
Версия формата : Version 4 / Version 2
Размер файла : 2,44 Гбайт
Продолжительность : 1 ч. 28 м.
Общий поток : 3967 Кбит/сек
Название фильма : = MediaClub = rip by krakatuq
Дата кодирования : UTC 2014-05-26 15:31:22
Программа кодирования : mkvmerge v6.6.0 ('The Edge Of The In Between') built on Dec 1 2013 17:55:00
Библиотека кодирования : libebml v1.3.0 + libmatroska v1.4.1

Видео
Идентификатор : 1
Формат : AVC
Формат/Информация : Advanced Video Codec
Профиль формата : High@L4.1
Параметр CABAC формата : Да
Параметр ReFrames формата : 10 кадров
Идентификатор кодека : V_MPEG4/ISO/AVC
Продолжительность : 1 ч. 28 м.
Битрейт : 3200 Кбит/сек
Ширина : 1024 пикселя
Высота : 556 пикселей
Соотношение сторон : 1,85:1
Режим частоты кадров : Постоянный
Частота кадров : 24,000 кадра/сек
Цветовое пространство : YUV
Субдискретизация насыщенности : 4:2:0
Битовая глубина : 8 бит
Тип развёртки : Прогрессивная
Бит/(Пиксели*Кадры) : 0.234
Размер потока : 1,92 Гбайт (79%)
Заголовок : Hjellouin.6.1995.x264.BDRip.AVC.MediaClub
Библиотека кодирования : x264 core 142 r2409+42 04be48a tMod [8-bit@4:2:0 X86]
Настройки программы : cabac=1 / ref=10 / deblock=1:-3:-3 / analyse=0x3:0x133 / me=umh / subme=11 / psy=1 / fade_compensate=0.00 / psy_rd=1.05:0.20 / mixed_ref=1 / me_range=32 / chroma_me=1 / trellis=2 / 8x8dct=1 / cqm=0 / deadzone=21,11 / fast_pskip=0 / chroma_qp_offset=-3 / threads=3 / lookahead_threads=1 / sliced_threads=0 / nr=0 / decimate=0 / interlaced=0 / bluray_compat=0 / constrained_intra=0 / fgo=0 / bframes=8 / b_pyramid=2 / b_adapt=2 / b_bias=0 / direct=3 / weightb=1 / open_gop=0 / weightp=2 / keyint=240 / keyint_min=23 / scenecut=40 / intra_refresh=0 / rc=2pass / mbtree=0 / bitrate=3200 / ratetol=1.0 / qcomp=0.60 / qpmin=0:0:0 / qpmax=69:69:69 / qpstep=4 / cplxblur=20.0 / qblur=0.5 / ip_ratio=1.40 / pb_ratio=1.30 / aq=1:1.00 / aq-sensitivity=10.00 / aq-factor=1.00:1.00:1.00 / aq2=0 / aq3=0
Язык : English
Default : Да
Forced : Нет

Аудио #1
Идентификатор : 2
Формат : AC-3
Формат/Информация : Audio Coding 3
Расширение режима : CM (complete main)
Параметр Endianness формата : Big
Идентификатор кодека : A_AC3
Продолжительность : 1 ч. 28 м.
Вид битрейта : Постоянный
Битрейт : 192 Кбит/сек
Каналы : 2 канала
Расположение каналов : Front: L R
Частота : 48,0 КГц
Битовая глубина : 16 бит
Метод сжатия : С потерями
Размер потока : 121 Мбайт (5%)
Заголовок : TRACK_01_DVO_RUS_НТВ+
Язык : Russian
Default : Да
Forced : Да

Аудио #2
Идентификатор : 3
Формат : AC-3
Формат/Информация : Audio Coding 3
Расширение режима : CM (complete main)
Параметр Endianness формата : Big
Идентификатор кодека : A_AC3
Продолжительность : 1 ч. 28 м.
Вид битрейта : Постоянный
Битрейт : 192 Кбит/сек
Каналы : 2 канала
Расположение каналов : Front: L R
Частота : 48,0 КГц
Битовая глубина : 16 бит
Метод сжатия : С потерями
Размер потока : 121 Мбайт (5%)
Заголовок : TRACK_02_DVO_RUS_Премьер Видео Фильм
Язык : Russian
Default : Нет
Forced : Нет

Аудио #3
Идентификатор : 4
Формат : AC-3
Формат/Информация : Audio Coding 3
Расширение режима : CM (complete main)
Параметр Endianness формата : Big
Идентификатор кодека : A_AC3
Продолжительность : 1 ч. 28 м.
Вид битрейта : Постоянный
Битрейт : 192 Кбит/сек
Каналы : 2 канала
Расположение каналов : Front: L R
Частота : 48,0 КГц
Битовая глубина : 16 бит
Метод сжатия : С потерями
Размер потока : 121 Мбайт (5%)
Заголовок : TRACK_03_AVO_RUS_Vizgunov
Язык : Russian
Default : Нет
Forced : Нет

Аудио #4
Идентификатор : 5
Формат : AC-3
Формат/Информация : Audio Coding 3
Расширение режима : CM (complete main)
Параметр Endianness формата : Big
Идентификатор кодека : A_AC3
Продолжительность : 1 ч. 28 м.
Вид битрейта : Постоянный
Битрейт : 192 Кбит/сек
Каналы : 2 канала
Расположение каналов : Front: L R
Частота : 48,0 КГц
Битовая глубина : 16 бит
Метод сжатия : С потерями
Размер потока : 121 Мбайт (5%)
Заголовок : TRACK_04_ORIGINAL_ENG
Язык : English
Default : Нет
Forced : Нет

Текст
Идентификатор : 6
Формат : UTF-8
Идентификатор кодека : S_TEXT/UTF8
Идентификатор кодека/Информация : UTF-8 Plain Text
Заголовок : TEXT_01_SUB_ENG
Язык : English
Default : Нет
Forced : Нет

Меню
00:00:00.000 : en:00:00:00.000
00:04:35.692 : en:00:04:35.692
00:11:28.358 : en:00:11:28.358
00:15:52.525 : en:00:15:52.525
00:19:54.858 : en:00:19:54.858
00:25:39.608 : en:00:25:39.608
00:31:29.983 : en:00:31:29.983
00:39:02.067 : en:00:39:02.067
00:43:23.233 : en:00:43:23.233
00:48:54.358 : en:00:48:54.358
00:58:15.400 : en:00:58:15.400
01:04:25.692 : en:01:04:25.692
01:10:51.983 : en:01:10:51.983
01:14:26.567 : en:01:14:26.567
01:17:57.358 : en:01:17:57.358
• Сохранены оригинальные чаптеры как на Blu-ray.

x264 log
x264 [info]: frame I:965 Avg QP:15.32 size: 75363
x264 [info]: frame P:29562 Avg QP:18.31 size: 31519
x264 [info]: frame B:96466 Avg QP:20.44 size: 11505
Релиз от:

Автор рипа:



Скачать Хэллоуин.6.Проклятие.Майкла.Майерса.Halloween.The.Curse.of.Michael.Myers.(Джо.Чаппелль).[1995.ужасы.триллер.BDRip-AVC].[DVO]x2+[AVO].torrent без регистрации
Золото ЗОЛОТАЯ РАЗДАЧА! СКАЧАННОЕ НЕ ЗАСЧИТЫВАЕТСЯ! Золото
Дата: Зарегистрирован   [ Тип: внутренний ] Как тут cкачать?
MAGNET ссылка
MAGNET ссылка


Скачать .torrent

13 KB

Статус: проверено DHT
Скачан: торрент - 98 раз, раздача полностью - 0 раз
Размер: 2,44 GB
Оценка:  - (Голосов: 0)
Поблагодарили: 0
Поделиться ссылкой на эту раздачу с друзьями:
В контактеFacebookОдноклассникиTwitterLivejournalМой МирLiveinternet
 

 
Показать сообщения:    


Вы не можете начинать темы
Вы не можете отвечать на сообщения
Вы не можете редактировать свои сообщения
Вы не можете удалять свои сообщения
Вы не можете голосовать в опросах
Вы не можете прикреплять файлы к сообщениям
Вы можете скачивать файлы