Loading...
Error

Скачать Франкенштейн / Frankenstein (Кеннет Брана) [1994, ужасы, фантастика, драма, мелодрама, BDRip-AVC] [Dub] торрент без регистрации

 
Статистика раздачи
Размер:  2,78 GB   |    Скачан:  119 раз
Сидов:  1  [  0 KB/s  ]  
 
Автор Сообщение

Marsianka

[] 

Франкенштейн / Frankenstein (1994) BDRip-AVC | iPad | D
«Гений породил чудовище»


Название: Франкенштейн
Оригинальное название: Frankenstein
Год выхода: 1994
Жанр: ужасы, фантастика, драма, мелодрама
Режиссер: Кеннет Брана
В ролях: Роберт Де Ниро, Кеннет Брана, Том Халс, Хелена Бонем Картер, Эйдан Куинн, Иэн Холм, Ричард Брирс, Джон Клиз, Роберт Харди, Шери Лунги

О фильме:
Этот фильм - экранизация знаменитого готического романа Мэри Шелли о чудовище, созданном гениальным доктором Франкенштейном, признана критиками самой страшной из всех киноверсий книги. Продюсер фильма Френсис Коппола и режиссер Кеннет Брана, признанные мастера жанра создали по-настоящему гипнотическое зрелище о похождениях ужасного монстра, в роли которого выступил Роберт Де Ниро, еще раз продемонстрировавший свой уникальный дар - завораживать зрителей и заставлять трепетать от страха их сердца.




Страна: США, Япония
Студия: American Zoetrope, Japan Satellite Broadcasting Inc., TriStar Pictures

Продолжительность: 2:03:10
Перевод: Русский дублированный

Файл
Кодек: H.264
Качество: BDRip [576p]
Видео: 1024x554 (1.85:1) at 23.976 fps, AVC at 3000 kbps
1: АAС 2.0 128 kbps - Русский дублированный
Субтитры: отсутствуют

General
Complete name : I:modoutFrankenstein.1994-576p.m4v
Format : MPEG-4
Codec ID : M4V
File size : 2.78 GiB
Duration : 2h 3mn
Overall bit rate mode : Variable
Overall bit rate : 3 234 Kbps
Movie name : Франкенштейн
Performer : Kenneth Branagh
Genre : Horror
ContentType : Short Film
Deion : Этот фильм — экранизация знаменитого готического романа Мэри Шелли о чудовище, созданном гениальным доктором Франкенштейном, признана критиками самой страшной из всех киноверсий книги.
Recorded date : UTC 1994-11-04 08:00:00
Encoded date : UTC 2014-05-27 05:31:34
Tagged date : UTC 2014-05-27 05:45:48
Copyright : TriStar Pictures, Japan Satellite Broadcasting (JBS), IndieProd Company Productions
Cover : Yes
Comment : «Гений породил чудовище»
ContentRating : mpaa|R|400|

Title/Sort : Mary Shelley's Frankenstein
LongDeion : Этот фильм — экранизация знаменитого готического романа Мэри Шелли о чудовище, созданном гениальным доктором Франкенштейном, признана критиками самой страшной из всех киноверсий книги. Продюсер фильма Френсис Коппола и режиссер Кеннет Брана, признанные мастера жанра создали по-настоящему гипнотическое зрелище о похождениях ужасного монстра, в роли которого выступил Роберт Де Ниро, еще раз продемонстрировавший свой уникальный дар — завораживать зрителей и заставлять трепетать от страха их сердца.
AppleStoreCatalogID : 270833850
Vendor : Apple:vendor_id:1994-6668

Video
ID : 1
Format : AVC
Format/Info : Advanced Video Codec
Format profile : High@L4.1
Format settings, CABAC : Yes
Format settings, ReFrames : 9 frames
Codec ID : avc1
Codec ID/Info : Advanced Video Coding
Duration : 2h 3mn
Bit rate : 3 098 Kbps
Maximum bit rate : 14.4 Mbps
Width : 1 024 pixels
Height : 554 pixels
Display aspect ratio : 1.85:1
Frame rate mode : Constant
Frame rate : 23.976 fps
Color space : YUV
Chroma subsampling : 4:2:0
Bit depth : 8 bits
Scan type : Progressive
Bits/(Pixel*Frame) : 0.228
Stream size : 2.67 GiB (96%)
Language : English
Encoded date : UTC 2014-05-27 05:31:34
Tagged date : UTC 2014-05-27 05:31:48

Audio
ID : 2
Format : AAC
Format/Info : Advanced Audio Codec
Format profile : LC
Codec ID : 40
Duration : 2h 3mn
Bit rate mode : Variable
Bit rate : 128 Kbps
Maximum bit rate : 215 Kbps
Channel(s) : 2 channels
Channel positions : Front: L R
Sampling rate : 48.0 KHz
Compression mode : Lossy
Stream size : 113 MiB (4%)
Title : Dub
Language : Russian
Encoded date : UTC 2014-05-27 05:31:45
Tagged date : UTC 2014-05-27 05:31:48

x264 [info]: frame I:1024 Avg QP:14.81 size: 79453
x264 [info]: frame P:40310 Avg QP:17.16 size: 32826
x264 [info]: frame B:135859 Avg QP:18.91 size: 10727
x264 [info]: consecutive B-frames: 2.3% 3.0% 11.5% 18.3% 20.0% 36.2% 3.3% 2.8% 2.1% 0.2% 0.1% 0.1% 0.1%
x264 [info]: mb I I16..4: 12.3% 65.9% 21.8%
x264 [info]: mb P I16..4: 1.4% 14.4% 2.1% P16..4: 30.2% 34.9% 11.0% 2.8% 0.4% skip: 2.7%
x264 [info]: mb B I16..4: 0.1% 1.5% 0.2% B16..8: 36.2% 21.2% 2.9% direct: 6.7% skip:31.2% L0:38.5% L1:43.3% BI:18.2%
x264 [info]: 8x8 transform intra:79.7% inter:44.9%
x264 [info]: coded y,uvDC,uvAC intra: 95.2% 72.5% 47.2% inter: 27.0% 16.0% 5.1%
x264 [info]: i16 v,h,dc,p: 5% 8% 15% 72%
x264 [info]: i8 v,h,dc,ddl,ddr,vr,hd,vl,hu: 9% 8% 7% 10% 14% 13% 13% 13% 14%
x264 [info]: i4 v,h,dc,ddl,ddr,vr,hd,vl,hu: 9% 7% 4% 10% 16% 15% 13% 12% 13%
x264 [info]: i8c dc,h,v,p: 34% 27% 19% 20%
x264 [info]: Weighted P-Frames: Y:7.0% UV:3.6%
x264 [info]: ref P L0: 55.7% 9.5% 13.9% 6.5% 4.5% 3.5% 2.8% 1.7% 1.5% 0.3% 0.0%
x264 [info]: ref B L0: 86.3% 5.7% 3.1% 1.6% 1.2% 1.0% 0.8% 0.4%
x264 [info]: ref B L1: 96.0% 4.0%
x264 [info]: kb/s:3098.06


Sort Name: Mary Shelley's Frankenstein
XID: Apple:vendor_id:1994-6668
Content ID: 270833850
Copyright: TriStar Pictures, Japan Satellite Broadcasting (JBS), IndieProd Company Productions
ScreenWriters: Стеф Леди, Фрэнк Дарабонт, Мэри Шелли
Producers: Дэвид Баррон, Кеннет Брэна, Френсис Форд Коппола
Director: Кеннет Брэна
Cast: Роберт Де Ниро, Кеннет Брэна, Том Халс, Хелена Бонем Картер, Эйдан Куинн, Иэн Холм, Ричард Брирс, Джон Клиз, Роберт Харди, Шери Лунги // Robert De Niro (The Creature), Kenneth Branagh (Victor Frankenstein), Tom Hulce (Henry Clerval), Helena Bonham Carter (Elizabeth), Aidan Quinn (Cap. Robert Walton), Ian Holm (Baron Frankenstein), Richard Briers (Großvater), John Cleese (Prof. Waldman), Robert Hardy (Prof. Krempe), Cherie Lunghi (Caroline Beaufort Frankenstein), Celia Imrie (Mrs. Moritz), Trevyn McDowell (Justine), Jimmy Yuill (Grigori)
Rating: R
Long Deion: Этот фильм — экранизация знаменитого готического романа Мэри Шелли о чудовище, созданном гениальным доктором Франкенштейном, признана критиками самой страшной из всех киноверсий книги. Продюсер фильма Френсис Коппола и режиссер Кеннет Брана, признанные мастера жанра создали по-настоящему гипнотическое зрелище о похождениях ужасного монстра, в роли которого выступил Роберт Де Ниро, еще раз продемонстрировавший свой уникальный дар — завораживать зрителей и заставлять трепетать от страха их сердца.
Deion: Этот фильм — экранизация знаменитого готического романа Мэри Шелли о чудовище, созданном гениальным доктором Франкенштейном, признана критиками самой страшной из всех киноверсий книги.
Release Date: 1994-11-04T08:00:00Z
Genre: Horror
Artist: Kenneth Branagh
Name: Франкенштейн
Comments: «Гений породил чудовище»






Скачать Франкенштейн.Frankenstein.(Кеннет.Брана).[1994.ужасы.фантастика.драма.мелодрама.BDRip-AVC].[Dub].torrent без регистрации
Золото ЗОЛОТАЯ РАЗДАЧА! СКАЧАННОЕ НЕ ЗАСЧИТЫВАЕТСЯ! Золото
Дата: Зарегистрирован   [ Тип: внутренний ] Как тут cкачать?
MAGNET ссылка
MAGNET ссылка


Скачать .torrent

14 KB

Статус: проверено DHT
Скачан: торрент - 119 раз, раздача полностью - 9 раз
Размер: 2,78 GB
Оценка:  5 (Голосов: 1)
Поблагодарили: 3
Поделиться ссылкой на эту раздачу с друзьями:
В контактеFacebookОдноклассникиTwitterLivejournalМой МирLiveinternet
 

 

shurikent

[] 

Спасибо релизеру, Очень классный фильм. В детстве страшно было при просмотре,а теперь тоскливо)
 
Показать сообщения:    


Вы не можете начинать темы
Вы не можете отвечать на сообщения
Вы не можете редактировать свои сообщения
Вы не можете удалять свои сообщения
Вы не можете голосовать в опросах
Вы не можете прикреплять файлы к сообщениям
Вы можете скачивать файлы