Loading...
Error

Скачать Сахара / Sahara (Брайан Тренчард-Смит) [1995, боевик, военный, DVDRip] [MVO] торрент без регистрации

 
Статистика раздачи
Размер:  746 MB   |    Скачан:  109 раз
Сидов:  5  [  0 KB/s  ]  
 
Автор Сообщение

Marsianka

[] 

Страна: США
Производство: TriStar Pictures, TriStar Television, Village Roadshow Pictures

Жанр: боевик, военный
Год выпуска: 1995
Продолжительность: 1:46:00

Перевод: Профессиональный (многоголосый закадровый) НТВ+
Оригинальная аудиодорожка: нет
Cубтитры: нет

Режиссер: Брайан Тренчард-Смит / Brian Trenchard-Smith

В ролях:
Джеймс Белуши /James Belushi, Элан Дэвид Ли, Саймон Уэстэуэй /Simon Westaway, Марк Ли /Mark Lee, Майкл Мэсси /Michael Massee, Роберт Уиздом /Robert Wisdom, Анджело Д'Анджело, Пол Эмпсон...

Описание:
Северная Африка, июнь 1942 года. После сражений с армией генерала Роммеля, от танкового батальона, в котором воюет сержант американской армии Джо Ганн, остается только одна машина. Подобрав по пути несколько солдат Союзнической армии, Ганн направляет свой танк в жгучие сахарские пески в надежде отыскать воду. Найдя полупересохший колодец, они утоляют жажду и наполняют фляги. А тем временем по их следу идет изнемогающий от жажды немецкий батальон. И Ганн решает вступить в бой…

Исходник: DVD5 R2
Тип релиза: DVDRip
Контейнер: AVI

Видео: 576x432 (4:3), 23,976 fps, XviD ~ 846 kbps avg, 0.142 bit/pixel
Аудио: 48 kHz, MP3 2.0, 128 kbps

Раздача от:

Общее
Полное имя : Sahara.1995.DVDRip_[New-team]_by_AVP_Studio.avi
Формат : AVI
Формат/Информация : Audio Video Interleave
Размер файла : 746 Мбайт
Продолжительность : 1 ч. 46 м.
Общий поток : 983 Кбит/сек
Программа кодирования : VirtualDubModRus 1.5.10.2 (build 2542/release)
Библиотека кодирования : VirtualDubMod build 2542/release

Видео
Идентификатор : 0
Формат : MPEG-4 Visual
Профиль формата : Advanced Simple@L5
Параметр BVOP формата : 1
Параметр QPel формата : Нет
Параметр GMC формата : Без точки перехода
Параметр матрицы формата : Выборочная
Идентификатор кодека : XVID
Идентификатор кодека/Подсказка : XviD
Продолжительность : 1 ч. 46 м.
Битрейт : 846 Кбит/сек
Ширина : 576 пикселей
Высота : 432 пикселя
Соотношение сторон : 4:3
Частота кадров : 23,976 кадра/сек
Цветовое пространство : YUV
Субдискретизация насыщенности : 4:2:0
Битовая глубина : 8 бит
Тип развёртки : Прогрессивная
Метод сжатия : С потерями
Бит/(Пиксели*Кадры) : 0.142
Размер потока : 641 Мбайт (86%)
Библиотека кодирования : XviD 73

Аудио
Идентификатор : 1
Формат : MPEG Audio
Версия формата : Version 1
Профиль формата : Layer 3
Идентификатор кодека : 55
Идентификатор кодека/Подсказка : MP3
Продолжительность : 1 ч. 46 м.
Вид битрейта : Постоянный
Битрейт : 128 Кбит/сек
Каналы : 2 канала
Частота : 48,0 КГц
Метод сжатия : С потерями
Размер потока : 97,1 Мбайт (13%)
Выравнивание : Соединение по промежуткам
Продолжительность промежутка : 42 мс. (1,00 видеокадр)
Время предзагрузки промежутка : 504 мс.
Библиотека кодирования : LAME3.99r
Настройки программы : -m s -V 4 -q 2 -lowpass 17 -b 128



Скачать Сахара.Sahara.(Брайан.Тренчард-Смит).[1995.боевик.военный.DVDRip].[MVO].torrent без регистрации
Золото ЗОЛОТАЯ РАЗДАЧА! СКАЧАННОЕ НЕ ЗАСЧИТЫВАЕТСЯ! Золото
Дата: Зарегистрирован   [ Тип: внешний ] Как тут cкачать?
MAGNET ссылка
MAGNET ссылка


Скачать .torrent

15 KB

Статус: проверено DHT
Скачан: торрент - 109 раз, раздача полностью - 39 раз
Размер: 746 MB
Оценка:  - (Голосов: 0)
Поблагодарили: 1
Поделиться ссылкой на эту раздачу с друзьями:
В контактеFacebookОдноклассникиTwitterLivejournalМой МирLiveinternet
 

 
Показать сообщения:    


Вы не можете начинать темы
Вы не можете отвечать на сообщения
Вы не можете редактировать свои сообщения
Вы не можете удалять свои сообщения
Вы не можете голосовать в опросах
Вы не можете прикреплять файлы к сообщениям
Вы можете скачивать файлы