Loading...
Error

Скачать Пираньи / Piranha (Скотт П. Леви) [1995, ужасы, DVDRip] [MVO]+[Оригинал] торрент без регистрации

 
Статистика раздачи
Размер:  2,18 GB   |    Скачан:  140 раз
Сидов:  2  [  169 KB/s  ]  
 
Автор Сообщение

Marsianka

[] 

Страна: США
Производство: Concorde-New Horizons, Showtime Networks Inc.
Жанр: ужасы
Год выпуска: 1995
Продолжительность: 01:26:52

Перевод: Профессиональный (многоголосый закадровый)
Оригинальная аудиодорожка: английский
Cубтитры: нет

Режиссер: Скотт П. Леви / Scott P. Levy

В ролях:
Александра Пол /Alexandra Paul/, Уильям Кэтт /William Katt/, Дарлин Карр, Солейл Мун Фрай, Джеймс Кэрен /James Karen/, Майла Кунис, Кели О'Бирн /Kehli O'Byrne/, Ричард Израэл, Кац Гэрэс, Лилэнд Орсер /Leland Orser/, Бен Слэк, Джеймс И. Бродхед, Монти Маркэм /Monty Markham/...

Описание:
Закончилась ли холодная война, если ее наследие угрожает всему человечеству? Развалившиеся бараки, затянутый тиной бассейн, ржавые конструкции — вот, пожалуй, и все, что осталось от секретной военной базы. Очаровательная женщина — детектив и писатель — отшельник, попав на эти руины холодной войны в поисках пропавшей парочки влюбленных, сливают воду из бассейна в соседнюю речушку. Откуда им было знать, что здесь выводили гигантских пираний, стремительно размножающихся и пожирающих все на своем пути — смертельное оружие массового поражения. Из речки рыбы — людоеды попадают в озеро, и если они доберутся до океана, на земле может исчезнуть все живое!

Исходник: DVD5 R5
Тип релиза: DVDRip
Контейнер: AVI

Видео: 688x512 (4:3), 25 fps, XviD ~ 2685 kbps avg, 0.305 bit/pixel
Аудио: 48 kHz, Dolby Digital AC3 5.1, 448 kbps MVO
Аудио: 48 kHz, Dolby Digital AC3 5.1, 448 kbps Английский
Раздача от:

Общее
Полное имя : Pirani.1995.DVDRip_[New-team]_by_AVP_Studio.avi
Формат : AVI
Формат/Информация : Audio Video Interleave
Профиль формата : OpenDML
Размер файла : 2,18 Гбайт
Продолжительность : 1 ч. 26 м.
Общий поток : 3600 Кбит/сек
Программа кодирования : VirtualDubModRus 1.5.10.2 (build 2542/release)
Библиотека кодирования : VirtualDubMod build 2542/release

Видео
Идентификатор : 0
Формат : MPEG-4 Visual
Профиль формата : Advanced Simple@L5
Параметр BVOP формата : 1
Параметр QPel формата : Нет
Параметр GMC формата : Без точки перехода
Параметр матрицы формата : Выборочная
Идентификатор кодека : XVID
Идентификатор кодека/Подсказка : XviD
Продолжительность : 1 ч. 26 м.
Битрейт : 2685 Кбит/сек
Ширина : 688 пикселей
Высота : 512 пикселей
Соотношение сторон : 4:3
Частота кадров : 25,000 кадров/сек
Цветовое пространство : YUV
Субдискретизация насыщенности : 4:2:0
Битовая глубина : 8 бит
Тип развёртки : Прогрессивная
Метод сжатия : С потерями
Бит/(Пиксели*Кадры) : 0.305
Размер потока : 1,63 Гбайт (75%)
Библиотека кодирования : XviD 73

Аудио #1
Идентификатор : 1
Формат : AC-3
Формат/Информация : Audio Coding 3
Расширение режима : CM (complete main)
Параметр Endianness формата : Big
Идентификатор кодека : 2000
Продолжительность : 1 ч. 26 м.
Вид битрейта : Постоянный
Битрейт : 448 Кбит/сек
Каналы : 6 каналов
Расположение каналов : Front: L C R, Side: L R, LFE
Частота : 48,0 КГц
Битовая глубина : 16 бит
Метод сжатия : С потерями
Размер потока : 278 Мбайт (12%)
Выравнивание : Разделение по промежуткам
Продолжительность промежутка : 40 мс. (1,00 видеокадр)
Время предзагрузки промежутка : 500 мс.

Аудио #2
Идентификатор : 2
Формат : AC-3
Формат/Информация : Audio Coding 3
Расширение режима : CM (complete main)
Параметр Endianness формата : Big
Идентификатор кодека : 2000
Продолжительность : 1 ч. 26 м.
Вид битрейта : Постоянный
Битрейт : 448 Кбит/сек
Каналы : 6 каналов
Расположение каналов : Front: L C R, Side: L R, LFE
Частота : 48,0 КГц
Битовая глубина : 16 бит
Метод сжатия : С потерями
Размер потока : 278 Мбайт (12%)
Выравнивание : Разделение по промежуткам
Продолжительность промежутка : 40 мс. (1,00 видеокадр)
Время предзагрузки промежутка : 500 мс



Скачать Пираньи.Piranha.(Скотт.П.Леви).[1995.ужасы.DVDRip].[MVO]+[Оригинал].torrent без регистрации
Золото ЗОЛОТАЯ РАЗДАЧА! СКАЧАННОЕ НЕ ЗАСЧИТЫВАЕТСЯ! Золото
Дата: Зарегистрирован   [ Тип: внешний ] Как тут cкачать?
MAGNET ссылка
MAGNET ссылка


Скачать .torrent

12 KB

Статус: проверено DHT
Скачан: торрент - 140 раз, раздача полностью - 32 раз
Размер: 2,18 GB
Оценка:  4 (Голосов: 1)
Поблагодарили: 1
Поделиться ссылкой на эту раздачу с друзьями:
В контактеFacebookОдноклассникиTwitterLivejournalМой МирLiveinternet
 

 
Показать сообщения:    


Вы не можете начинать темы
Вы не можете отвечать на сообщения
Вы не можете редактировать свои сообщения
Вы не можете удалять свои сообщения
Вы не можете голосовать в опросах
Вы не можете прикреплять файлы к сообщениям
Вы можете скачивать файлы