Loading...
Error

Скачать Девушка и волки / La jeune fille et les loups (Жиль Легран) [2008, драма, семейный, BDRip-AVC] [MVO] торрент без регистрации

 
Статистика раздачи
Размер:  1,45 GB   |    Скачан:  111 раз
Сидов:  1  [  0 KB/s  ]  
 
Автор Сообщение

Marsianka

[] 

Девушка и волки / La jeune fille et les loups (2008) BDRip-AVC

Информация о фильме
Название: Девушка и волки
Оригинальное название: La jeune fille et les loups
Год выхода: 2008
Жанр: драма, семейный
Режиссер: Жиль Легран

В ролях: Летиция Каста, Жан-Поль Рув, Стефано Аккорси, Миглен Миртчев, Мишель Галабрю, Патрик Шенэ, Лоран Дойч, Дидье Бенюро, Юрбен Канселье, Лоран Гамелон...

О фильме: Начало 20-го века. Мэр французской деревушки Эмиль Гарсин мечтает проложить на живописных альпийских просторах железную дорогу и построить там горнолыжный курорт. Но его корыстным и амбициозным планам мешают полоумный горец Джузеппе и стая диких волков, приводящих в ужас жителей окрестностей. И только юная Анжель готова пойти на все, чтобы спасти этих красивых и отважных зверей…



Страна: Франция
Продолжительность: 01:50:24
Перевод: Профессиональный (многоголосый закадровый)

Файл
Кодек: x.264
Качество: BDRip-AVC
Видео: 1024x554 (16:9 ), 23,976 fps, 1654 kbps, 0.122 bit/pixel
Звук: 48 kHz, AC3 Dolby Digital, 2 ch, ~224.00 kbps

&
Общее
Уникальный идентификатор : 221321706900147229451230743005104976383 (0xA68102A0CE116FE6A5742EFC02FC31FF)
Полное имя : D:La jeune fille et les loups.2008.BDRip-AVC.PT.mkv
Формат : Matroska
Версия формата : Version 2
Размер файла : 1,45 Гбайт
Продолжительность : 1 ч. 50 м.
Общий поток : 1878 Кбит/сек
Название фильма : Девушка и волки / La jeune fille et les loups (2008) BDRip-AVC rip by rulya74
Дата кодирования : UTC 2012-03-12 05:39:02
Программа кодирования : mkvmerge v5.2.1 ('A Far Off Place') built on Jan 2 2012 23:21:10
Библиотека кодирования : libebml v1.2.3 + libmatroska v1.3.0

Видео
Идентификатор : 1
Формат : AVC
Формат/Информация : Advanced Video Codec
Профиль формата : High@L4.1
Параметр CABAC формата : Да
Параметр ReFrames формата : 12 кадров
Идентификатор кодека : V_MPEG4/ISO/AVC
Продолжительность : 1 ч. 50 м.
Битрейт : 1654 Кбит/сек
Ширина : 1024 пикселя
Высота : 554 пикселя
Соотношение сторон : 16:9
Частота кадров : 23,976 кадра/сек
Цветовое пространство : YUV
Субдискретизация насыщенности : 4:2:0
Битовая глубина : 8 бит
Тип развёртки : Прогрессивная
Бит/(Пиксели*Кадры) : 0.122
Размер потока : 1,25 Гбайт (86%)
Библиотека кодирования : x264 core 120 r2164 da19765
Настройки программы : cabac=1 / ref=12 / deblock=1:-3:-3 / analyse=0x3:0x113 / me=umh / subme=10 / psy=1 / psy_rd=1.00:0.00 / mixed_ref=1 / me_range=48 / chroma_me=1 / trellis=2 / 8x8dct=1 / cqm=0 / deadzone=21,11 / fast_pskip=1 / chroma_qp_offset=-2 / threads=6 / sliced_threads=0 / nr=0 / decimate=1 / interlaced=0 / bluray_compat=0 / constrained_intra=0 / bframes=12 / b_pyramid=2 / b_adapt=1 / b_bias=0 / direct=3 / weightb=1 / open_gop=0 / weightp=2 / keyint=240 / keyint_min=22 / scenecut=40 / intra_refresh=0 / rc=2pass / mbtree=0 / bitrate=1654 / ratetol=1.0 / qcomp=0.60 / qpmin=10 / qpmax=51 / qpstep=4 / cplxblur=20.0 / qblur=0.5 / ip_ratio=1.40 / pb_ratio=1.30 / aq=1:1.00
Default : Да
Forced : Нет

Аудио
Идентификатор : 2
Формат : AC-3
Формат/Информация : Audio Coding 3
Расширение режима : CM (complete main)
Идентификатор кодека : A_AC3
Продолжительность : 1 ч. 50 м.
Вид битрейта : Постоянный
Битрейт : 224 Кбит/сек
Каналы : 2 канала
Расположение каналов : Front: L R
Частота : 48,0 КГц
Битовая глубина : 16 бит
Метод сжатия : С потерями
Размер потока : 177 Мбайт (12%)
Заголовок : Многоголосый
Язык : Russian
Default : Да
Forced : Нет



Скачать Девушка.и.волки.La.jeune.fille.et.les.loups.(Жиль.Легран).[2008.драма.семейный.BDRip-AVC].[MVO].torrent без регистрации
Золото ЗОЛОТАЯ РАЗДАЧА! СКАЧАННОЕ НЕ ЗАСЧИТЫВАЕТСЯ! Золото
Дата: Зарегистрирован   [ Тип: внутренний ] Как тут cкачать?
MAGNET ссылка
MAGNET ссылка


Скачать .torrent

15 KB

Статус: проверено DHT
Скачан: торрент - 111 раз, раздача полностью - 8 раз
Размер: 1,45 GB
Оценка:  - (Голосов: 0)
Поблагодарили: 3
Поделиться ссылкой на эту раздачу с друзьями:
В контактеFacebookОдноклассникиTwitterLivejournalМой МирLiveinternet
 

 
Показать сообщения:    


Вы не можете начинать темы
Вы не можете отвечать на сообщения
Вы не можете редактировать свои сообщения
Вы не можете удалять свои сообщения
Вы не можете голосовать в опросах
Вы не можете прикреплять файлы к сообщениям
Вы можете скачивать файлы