Loading...
Error

Скачать Кинопроба / Audition / Ôdishon (Такаши Миике) [1999, ужасы, триллер, мелодрама, драма, детектив, BDRip-AVC] [DVO] торрент без регистрации

 
Статистика раздачи
Размер:  2,12 GB   |    Скачан:  116 раз
Сидов:  1  [  0 KB/s  ]  
 
Автор Сообщение

Marsianka

[] 

Кинопроба / Audition / Ôdishon (1999) BDRip-AVC | iPad | P2
«She always gets a part»


Название: Кинопроба
Оригинальное название: Ôdishon
Год выхода: 1999
Жанр: ужасы, триллер, мелодрама, драма, детектив
Режиссер: Такаши Миике
В ролях: Эйхи Шиина, Тэцу Саваки, Дзюн Кунимура, Рэндзи Исибаси, Миюки Мацуда, Тошие Негиши, Рен Осуги, Шигеру Сайки, Кен Митсуйши

О фильме:
Мужчина, семь лет назад потерявший жену, решает найти себе подругу жизни. С помощью приятеля, близкого к шоу-бизнесу, он организовывает кинопробы, которые, на самом деле становятся смотринами девушек разных возрастов и их вредных привычек. И находит, что искал





Страна: Япония
Студия: American Zoetrope, Japan Satellite Broadcasting Inc., TriStar Pictures

Продолжительность: 01:55:35
Перевод: Русский профессиональный двухголосый закадровый (Партнер Видео Фильм)

Файл
Кодек: H.264
Качество: BDRip [576p]
Видео: 1024x576 (16:9) at 23.976 fps, AVC at 2500 kbps
1: АAС 2.0 132 kbps - Русский профессиональный двухголосый закадровый (Партнер Видео Фильм)
Субтитры: отсутствуют

General
Complete name : I:modoutAudition.1999.576p.D.m4v
Format : MPEG-4
Codec ID : M4V
File size : 2.12 GiB
Duration : 1h 55mn
Overall bit rate mode : Variable
Overall bit rate : 2 632 Kbps
Movie name : Кинопроба
Performer : Takashi Miike
Genre : Horror
ContentType : Short Film
Deion : Мужчина, семь лет назад потерявший жену, решает найти себе подругу жизни. С помощью приятеля, близкого к шоу-бизнесу, он организовывает кинопробы, которые, на самом деле становятся смотринами девушек разных возрастов и их вредных привычек.
Recorded date : 2000-03-03
Encoded date : UTC 2014-05-27 16:56:02
Tagged date : UTC 2014-05-27 16:59:08
Copyright : Basara Pictures, Creators Company Connection, Omega Project
Cover : Yes
Comment : «She always gets a part»
ContentRating : mpaa|R|400|

Title/Sort : Ôdishon
LongDeion : Мужчина, семь лет назад потерявший жену, решает найти себе подругу жизни. С помощью приятеля, близкого к шоу-бизнесу, он организовывает кинопробы, которые, на самом деле становятся смотринами девушек разных возрастов и их вредных привычек. И находит, что искал…
AppleStoreCatalogID : 41833
Vendor : Apple:vendor_id:1999-41833

Video
ID : 1
Format : AVC
Format/Info : Advanced Video Codec
Format profile : High@L4.1
Format settings, CABAC : Yes
Format settings, ReFrames : 9 frames
Codec ID : avc1
Codec ID/Info : Advanced Video Coding
Duration : 1h 55mn
Bit rate : 2 490 Kbps
Maximum bit rate : 15.4 Mbps
Width : 1 024 pixels
Height : 576 pixels
Display aspect ratio : 16:9
Frame rate mode : Constant
Frame rate : 23.976 fps
Color space : YUV
Chroma subsampling : 4:2:0
Bit depth : 8 bits
Scan type : Progressive
Bits/(Pixel*Frame) : 0.176
Stream size : 2.01 GiB (95%)
Title : Audition.1999
Language : English
Encoded date : UTC 2014-05-27 16:56:02
Tagged date : UTC 2014-05-27 16:56:20

Audio
ID : 2
Format : AAC
Format/Info : Advanced Audio Codec
Format profile : LC
Codec ID : 40
Duration : 1h 55mn
Bit rate mode : Variable
Bit rate : 132 Kbps
Maximum bit rate : 199 Kbps
Channel(s) : 2 channels
Channel positions : Front: L R
Sampling rate : 48.0 KHz
Compression mode : Lossy
Stream size : 110 MiB (5%)
Title : Dub
Language : Russian
Encoded date : UTC 2014-05-27 16:53:10
Tagged date : UTC 2014-05-27 16:56:20

Menu
ID : 3
Codec ID : text
Duration : 1h 55mn
Encoded date : UTC 2014-05-27 16:56:36
Tagged date : UTC 2014-05-27 16:56:36
Bit rate mode : CBR

x264 [info]: frame I:950 Avg QP:15.10 size: 81079
x264 [info]: frame P:30494 Avg QP:18.32 size: 30544
x264 [info]: frame B:134834 Avg QP:21.18 size: 8531
x264 [info]: consecutive B-frames: 1.1% 0.8% 3.6% 5.2% 13.1% 65.7% 5.8% 2.4% 1.8% 0.2% 0.1% 0.2% 0.0%
x264 [info]: mb I I16..4: 9.7% 71.6% 18.7%
x264 [info]: mb P I16..4: 0.3% 6.8% 0.6% P16..4: 31.3% 36.8% 15.6% 3.2% 0.5% skip: 4.7%
x264 [info]: mb B I16..4: 0.0% 1.2% 0.0% B16..8: 35.4% 15.4% 2.1% direct: 4.7% skip:41.2% L0:44.3% L1:41.6% BI:14.1%
x264 [info]: 8x8 transform intra:87.3% inter:52.4%
x264 [info]: coded y,uvDC,uvAC intra: 94.7% 88.4% 74.2% inter: 21.5% 20.4% 10.4%
x264 [info]: i16 v,h,dc,p: 16% 19% 10% 55%
x264 [info]: i8 v,h,dc,ddl,ddr,vr,hd,vl,hu: 10% 10% 10% 9% 13% 11% 12% 11% 13%
x264 [info]: i4 v,h,dc,ddl,ddr,vr,hd,vl,hu: 10% 12% 4% 10% 15% 13% 13% 10% 13%
x264 [info]: i8c dc,h,v,p: 45% 21% 16% 18%
x264 [info]: Weighted P-Frames: Y:3.3% UV:1.4%
x264 [info]: ref P L0: 42.6% 6.8% 17.3% 8.9% 7.1% 5.9% 5.2% 3.2% 3.0% 0.1% 0.0%
x264 [info]: ref B L0: 74.2% 8.9% 6.0% 3.2% 2.6% 2.2% 1.9% 0.9%
x264 [info]: ref B L1: 94.1% 5.9%
x264 [info]: kb/s:2490.11


Sort Name: Ôdishon
XID: Apple:vendor_id:1999-41833
Content ID: 41833
Copyright: Basara Pictures, Creators Company Connection, Omega Project
ScreenWriters: Дайскэ Тэнган, Рю Мураками
Producers: Сатоси Фукусима, Акэми Суяма, Дзюнъити Шиндо
Director: Такаси Миике
Cast: Рё Исибаси, Эйхи Сийна, Тэцу Саваки, Дзюн Кунимура, Рэндзи Исибаси, Миюки Мацуда, Тошие Негиши, Рен Осуги, Шигеру Сайки, Кен Мицуйси // Ryo Ishibashi (Shigeharu Aoyama), Eihi Shiina (Asami Yamazaki), Jun Kunimura (Yasuhisa Yoshikawa), Tetsu Sawaki (Shigehiko Aoyama), Renji Ishibashi (Old man in wheelchair), Miyuki Matsuda (Ryoko Aoyama), Toshie Negishi (Rie), Shigeru Saiki (Toastmaster), Ken Mitsuishi (Director), Yuriko Hiro'oka (Michiyo Yanagida), Ren Osugi (Shimada)
Rating: R
Long Deion: Мужчина, семь лет назад потерявший жену, решает найти себе подругу жизни. С помощью приятеля, близкого к шоу-бизнесу, он организовывает кинопробы, которые, на самом деле становятся смотринами девушек разных возрастов и их вредных привычек. И находит, что искал…
Deion: Мужчина, семь лет назад потерявший жену, решает найти себе подругу жизни. С помощью приятеля, близкого к шоу-бизнесу, он организовывает кинопробы, которые, на самом деле становятся смотринами девушек разных возрастов и их вредных привычек.
Release Date: 2000-03-03
Genre: Horror
Artist: Takashi Miike
Name: Кинопроба
Comments: «She always gets a part»



Скачать Кинопроба.Audition.Ôdishon.(Такаши.Миике).[1999.ужасы.триллер.мелодрама.драма.детектив.BDRip-AVC].[DVO].torrent без регистрации
Золото ЗОЛОТАЯ РАЗДАЧА! СКАЧАННОЕ НЕ ЗАСЧИТЫВАЕТСЯ! Золото
Дата: Зарегистрирован   [ Тип: внутренний ] Как тут cкачать?
MAGNET ссылка
MAGNET ссылка


Скачать .torrent

11 KB

Статус: проверено DHT
Скачан: торрент - 116 раз, раздача полностью - 13 раз
Размер: 2,12 GB
Оценка:  - (Голосов: 0)
Поблагодарили: 0
Поделиться ссылкой на эту раздачу с друзьями:
В контактеFacebookОдноклассникиTwitterLivejournalМой МирLiveinternet
 

 
Показать сообщения:    


Вы не можете начинать темы
Вы не можете отвечать на сообщения
Вы не можете редактировать свои сообщения
Вы не можете удалять свои сообщения
Вы не можете голосовать в опросах
Вы не можете прикреплять файлы к сообщениям
Вы можете скачивать файлы