Loading...
Error

Скачать Элвис. Ранние Годы / Elvis (Джеймс Стивен Сэдвидж) [2005, драма, биография, история, музыка, реальные события, BDRip] [Dub] торрент без регистрации

 
Статистика раздачи
Размер:  2,9 GB   |    Скачан:  111 раз

Полного источника не было: 29 минут

 
Автор Сообщение

Marsianka

[] 

Информация о фильме
Название: Элвис. Ранние Годы
Оригинальное название: Elvis
Год выхода: 2005
Жанр: драма, биография, история, музыка, реальные события
Режиссер: Джеймс Стивен Сэдвидж
В ролях: Джонатан Рис-Майерс, Рэнди Куэйд, Роуз МакГоун, Тим Гини, Антония Бернат, Джек Ноузуорти, Роберт Патрик, Камрин Менхейм, Клэй Стикли, Марк Адам, Роберт С. Тревилер, Дженнифер Рэй Уэстли, Джон Бойд Уэст, Рэнди Макдауэлл, Эрик Уильям Пирсон, Джилл Джейн Клементс, Мэрион Цинсер, Джозеф Б. Смит, Барт Хансард, Майкл Кехилл, Дуглас М. Гриффин, Тони Бентли, Хант Скэрритт, Кармен Аманда Мейп, Лора-Шей Гриффин, Дэйн Родс, Дэнни Нельсон

О фильме:
Это 3-х часовая основанная на реальных событиях драма рассказывает о жизни величайшего музыканта Элвиса Пресли. Это завораживающая и яркая история - от скромного начала к оглушительному успеху.




Страна: США, Германия, ApolloProScreen GmbH & Co. Filmproduktion KG, Greenblatt Janolari Studio, Jaffe/Braunstein Films Ltd.
Продолжительность: 02:53:00
Перевод: Профессиональный (полное дублирование)

Файл
Качество: BDRip
Видео: XviD, 720x400 (16:9), 1945 kbps, 23,976 fps, 0,282 bpp
Звук: AC3 / 5.1 / 48 kHz / 448 kbps / 16 bit


Format : AVI
Format/Info : Audio Video Interleave
Format profile : OpenDML
File size : 2.90 GiB
Duration : 2h 53mn
Overall bit rate : 2 404 Kbps
Movie name : Elvis.Rannie.godi.2005.XviD.BDRip
Director : Vikosol
Writing application : VirtualDubMod 1.5.10.3 | www.virtualdub-fr.org || (build 2550/release)

Video
ID : 0
Format : MPEG-4 Visual
Format profile : Advanced Simple@L5
Format settings, BVOP : 1
Format settings, QPel : No
Format settings, GMC : No warppoints
Format settings, Matrix : Custom
Codec ID : XVID
Codec ID/Hint : XviD
Duration : 2h 53mn
Bit rate : 1 945 Kbps
Width : 720 pixels
Height : 400 pixels
Display aspect ratio : 16:9
Frame rate : 23.976 fps
Color space : YUV
Chroma subsampling : 4:2:0
Bit depth : 8 bits
Scan type : Progressive
Compression mode : Lossy
Bits/(Pixel*Frame) : 0.282
Stream size : 2.35 GiB (81%)
Writing library : XviD 73

Audio
ID : 1
Format : AC-3
Format/Info : Audio Coding 3
Mode extension : CM (complete main)
Codec ID : 2000
Duration : 2h 53mn
Bit rate mode : Constant
Bit rate : 448 Kbps
Channel(s) : 6 channels
Channel positions : Front: L C R, Side: L R, LFE
Sampling rate : 48.0 KHz
Bit depth : 16 bits
Compression mode : Lossy
Stream size : 554 MiB (19%)
Alignment : Split accross interleaves
Interleave, duration : 42 ms (1.00 video frame)
Interleave, preload duration : 500 ms
Автор рипа: Vikosol



Скачать Элвис.Ранние.Годы.Elvis.(Джеймс.Стивен.Сэдвидж).[2005.драма.биография.история.музыка.реальные.события.BDRip].[Dub].torrent без регистрации
Золото ЗОЛОТАЯ РАЗДАЧА! СКАЧАННОЕ НЕ ЗАСЧИТЫВАЕТСЯ! Золото
Дата: Зарегистрирован   [ Тип: внутренний ] Как тут cкачать?
MAGNET ссылка
MAGNET ссылка


Скачать .torrent

15 KB

Статус: проверено DHT
Скачан: торрент - 111 раз, раздача полностью - 30 раз
Размер: 2,9 GB
Оценка:  - (Голосов: 0)
Поблагодарили: 1
Поделиться ссылкой на эту раздачу с друзьями:
В контактеFacebookОдноклассникиTwitterLivejournalМой МирLiveinternet
 

 
Показать сообщения:    


Вы не можете начинать темы
Вы не можете отвечать на сообщения
Вы не можете редактировать свои сообщения
Вы не можете удалять свои сообщения
Вы не можете голосовать в опросах
Вы не можете прикреплять файлы к сообщениям
Вы можете скачивать файлы