Loading...
Error

Скачать Вампир в Бруклине / Vampire In Brooklyn (Уэс Крэйвен) [1994, ужасы, мелодрама, комедия, DVDRip] [MVO]+[DVO] торрент без регистрации

 
Статистика раздачи
Размер:  1,47 GB   |    Скачан:  128 раз
Сидов:  2  [  0 KB/s  ]  
 
Автор Сообщение

Marsianka

[] 

Вампир в Бруклине / Vampire In Brooklyn
Страна: США
Жанр: ужасы, мелодрама, комедия
Год выпуска: 1994
Продолжительность: 01:37:52
Перевод #1: Профессиональный (многоголосый закадровый) СТС / ТК Домашний
Перевод #2: Профессиональный (двухголосый закадровый) Премьер Видео Фильм
Cубтитры: нет

Режиссер: Уэс Крэйвен / Wes Craven

В ролях: Эдди Мёрфи, Анджела Бассетт, Аллен Пэйн, Кадим Хардисон, Джон Уизерспун, Закес Мокае, Джоанна Кэссиди, Симби Хали, Мессири Фриман, Келли Синнант

Описание: Импозантный карибский вампир Максимилиан решает нанести визит в город Нью — Йорк. Он хочет исполнить свою давнюю мечту — обзавестись обворожительной спутницей, которая поможет ему скрасить многовековое вампирское одиночество. Причем подругой кровососа может стать только женщина, в роду которой есть вампиры. И черному вампиру посчастливилось найти в Бурклине подходящую девицу, в лице прекрасной Риты. Но радость упыря была омрачена тем, что Рита оказалась дамой во всех отношениях положительной и, к тому же, служащей полиции. Однако, не знающий отказов Максимилиан, решает завоевать избранную им женщину во что бы то ни стало…



Качество видео: DVDRip
Формат видео: AVI
Видео кодек: XviD
Аудио кодек: AC3
Видео: 688x384 (1.79:1), 25 fps, XviD build 50 ~1744 kbps avg, 0.26 bit/pixel
Аудио #1: 48 kHz, AC3 Dolby Digital, 2/0 (L,R) ch, ~192 kbps | MVO
Аудио #2: 48 kHz, AC3 Dolby Digital, 2/0 (L,R) ch, ~192 kbps | DVO
Раздача от:
D:Мои рипыVampire_in_Brooklyn.DVDRip.MVO.DVO.by_dexter_lex.avi
General
Complete name : D:Мои рипыVampire_in_Brooklyn.DVDRip.MVO.DVO.by_dexter_lex.avi
Format : AVI
Format/Info : Audio Video Interleave
File size : 1.47 GiB
Duration : 1h 37mn
Overall bit rate : 2 144 Kbps
Writing application : VirtualDubMod 1.5.10.3 | www.virtualdub-fr.org || (build 2550/release)
Writing library : VirtualDubMod build 2550/release
Video #0
ID : 0
Format : MPEG-4 Visual
Format profile : Advanced Simple@L5
Format settings, BVOP : 1
Format settings, QPel : No
Format settings, GMC : No warppoints
Format settings, Matrix : Custom
Codec ID : XVID
Codec ID/Hint : XviD
Duration : 1h 37mn
Bit rate : 1 746 Kbps
Width : 688 pixels
Height : 384 pixels
Display aspect ratio : 16:9
Frame rate : 25.000 fps
Color space : YUV
Chroma subsampling : 4:2:0
Bit depth : 8 bits
Scan type : Progressive
Compression mode : Lossy
Bits/(Pixel*Frame) : 0.264
Stream size : 1.19 GiB (81%)
Writing library : XviD 1.2.1 (UTC 2008-12-04)
Audio #1
ID : 1
Format : AC-3
Format/Info : Audio Coding 3
Mode extension : CM (complete main)
Codec ID : 2000
Duration : 1h 37mn
Bit rate mode : Constant
Bit rate : 192 Kbps
Channel(s) : 2 channels
Channel positions : Front: L R
Sampling rate : 48.0 KHz
Bit depth : 16 bits
Compression mode : Lossy
Stream size : 134 MiB (9%)
Alignment : Aligned on interleaves
Interleave, duration : 40 ms (1.00 video frame)
Interleave, preload duration : 512 ms
Audio #2
ID : 2
Format : AC-3
Format/Info : Audio Coding 3
Mode extension : CM (complete main)
Codec ID : 2000
Duration : 1h 37mn
Bit rate mode : Constant
Bit rate : 192 Kbps
Channel(s) : 2 channels
Channel positions : Front: L R
Sampling rate : 48.0 KHz
Bit depth : 16 bits
Compression mode : Lossy
Stream size : 134 MiB (9%)
Alignment : Split accross interleaves
Interleave, duration : 40 ms (1.00 video frame)
Interleave, preload duration : 500 ms



Скачать Вампир.в.Бруклине.Vampire.In.Brooklyn.(Уэс.Крэйвен).[1994.ужасы.мелодрама.комедия.DVDRip].[MVO]+[DVO].torrent без регистрации
Золото ЗОЛОТАЯ РАЗДАЧА! СКАЧАННОЕ НЕ ЗАСЧИТЫВАЕТСЯ! Золото
Дата: Зарегистрирован   [ Тип: внешний ] Как тут cкачать?
MAGNET ссылка
MAGNET ссылка


Скачать .torrent

15 KB

Статус: проверено DHT
Скачан: торрент - 128 раз, раздача полностью - 24 раз
Размер: 1,47 GB
Оценка:  - (Голосов: 0)
Поблагодарили: 1
Поделиться ссылкой на эту раздачу с друзьями:
В контактеFacebookОдноклассникиTwitterLivejournalМой МирLiveinternet
 

 
Показать сообщения:    


Вы не можете начинать темы
Вы не можете отвечать на сообщения
Вы не можете редактировать свои сообщения
Вы не можете удалять свои сообщения
Вы не можете голосовать в опросах
Вы не можете прикреплять файлы к сообщениям
Вы можете скачивать файлы