Loading...
Error

Скачать Стигматы / Stigmata (Руперт Вейнрайт) [1999, ужасы, триллер, детектив, WEB-DLRip] [Dub] торрент без регистрации

 
Статистика раздачи
Размер:  1,46 GB   |    Скачан:  112 раз
Сидов:  1  [  0 KB/s  ]  
 
Автор Сообщение

Marsianka

[] 

Информация о фильме
Название: Стигматы
Оригинальное название: Stigmata
Год выхода: 1999
Жанр: ужасы, триллер, детектив
Режиссер: Руперт Вейнрайт
В ролях: Патриция Аркетт, Гэбриел Бирн, Джонатан Прайс, Ниа Лонг, Томас Копаче, Раде Шербеджия, Энрико Колантони, Дик Латесса, Порша де Росси, Патрик Малдун

О фильме:
Фрэнки Пейдж живет спокойно, свободно и беззаботно. И меньше всего ее беспокоят вопросы о Боге. Все это в одночасье меняется, когда ее поражают «стигматы» - кровоточащие раны распятого Христа. Вскоре на нее обращает внимание отец Кернан, уполномоченный следователь из Ватикана.

Одновременно и другой священнослужитель, коррумпированный кардинал Хаусмен, понимает, что Фрэнки избрана для передачи сокрушительного пророчества, которое может навредить официальной церкви. Он убежден, что необходимо любым способом заставить ее замолчать.

Поэтому Кернан, рискуя жизнью, пытается спасти Фрэнки и получить послание, не только разбивающее устои римско-католической церкви, но и навсегда изменяющее судьбу человечества.




Страна: США
Продолжительность: 01:42:12
Перевод: Дубляж,|iTunes Russia|

Файл
Кодек: XviD
Качество: WEB-DLRip
Видео: 704x304, 23,976 fps, 1846 kbps
Звук: AC3, 2 ch, 192 kbps
Общее
Полное имя : Stigmata.1999.WEB-DLRip.avi
Формат : AVI
Формат/Информация : Audio Video Interleave
Размер файла : 1,46 Гбайт
Продолжительность : 1 ч. 42 м.
Общий поток : 2047 Кбит/сек
Программа кодирования : VirtualDubMod 1.5.10.2 (build 2542/release)
Библиотека кодирования : VirtualDubMod build 2542/release

Видео
Идентификатор : 0
Формат : MPEG-4 Visual
Профиль формата : Advanced Simple@L5
Параметр BVOP формата : 1
Параметр QPel формата : Нет
Параметр GMC формата : Без точки перехода
Параметр матрицы формата : Выборочная
Идентификатор кодека : XVID
Идентификатор кодека/Подсказка : XviD
Продолжительность : 1 ч. 42 м.
Битрейт : 1846 Кбит/сек
Ширина : 704 пикс.
Высота : 304 пикс.
Соотношение сторон : 2,35:1
Частота кадров : 23,976 кадр/сек
Цветовое пространство : YUV
Подвыборка цветности : 4:2:0
Битовая глубина : 8 бит
Тип развёртки : Прогрессивная
Метод сжатия : С потерями
Бит/(Пиксели*Кадры) : 0.360
Размер потока : 1,32 Гбайт (90%)
Библиотека кодирования : XviD 65

Аудио
Идентификатор : 1
Формат : AC-3
Формат/Информация : Audio Coding 3
Расширение режима : CM (complete main)
Идентификатор кодека : 2000
Продолжительность : 1 ч. 42 м.
Вид битрейта : Постоянный
Битрейт : 192 Кбит/сек
Канал(ы) : 2 канала(ов)
Расположение каналов : Front: L R
Частота : 48,0 КГц
Битовая глубина : 16 бит
Метод сжатия : С потерями
Размер потока : 140 Мбайт (9%)
Выравнивание : Разделение по промежуткам
Продолжительность промежутка : 42 мс. (1,00 видеокадр)
Время предзагрузки промежутка : 500 ms
Релиз от: Leon-masl



Скачать Стигматы.Stigmata.(Руперт.Вейнрайт).[1999.ужасы.триллер.детектив.WEB-DLRip].[Dub].torrent без регистрации
Золото ЗОЛОТАЯ РАЗДАЧА! СКАЧАННОЕ НЕ ЗАСЧИТЫВАЕТСЯ! Золото
Дата: Зарегистрирован   [ Тип: внутренний ] Как тут cкачать?
MAGNET ссылка
MAGNET ссылка


Скачать .torrent

15 KB

Статус: проверено DHT
Скачан: торрент - 112 раз, раздача полностью - 11 раз
Размер: 1,46 GB
Оценка:  - (Голосов: 0)
Поблагодарили: 0
Поделиться ссылкой на эту раздачу с друзьями:
В контактеFacebookОдноклассникиTwitterLivejournalМой МирLiveinternet
 

 
Показать сообщения:    


Вы не можете начинать темы
Вы не можете отвечать на сообщения
Вы не можете редактировать свои сообщения
Вы не можете удалять свои сообщения
Вы не можете голосовать в опросах
Вы не можете прикреплять файлы к сообщениям
Вы можете скачивать файлы