Loading...
Error

Скачать Свой парень / Homeboy (Майкл Серезин / Michael Seresin) [1988, драма, спорт, DVDRip-AVC] [VO] (Д.Есарев) + Sub Eng + Original Eng торрент без регистрации

 
Статистика раздачи
Размер:  2,18 GB   |    Скачан:  134 раза
Сидов:  1  [  0 KB/s  ]  
 
Автор Сообщение

leon030982

[] 

Свой парень / Homeboy


Год выпуска: 1988
Страна: США
Жанр: драма, спорт.
Продолжительность: 01:55:26
Перевод: Одноголосый (закадровый) [Дмитрий Есарев]
Cубтитры: английские
Оригинальная аудиодорожка: английский

Режиссер: Майкл Серезин / Michael Seresin

В ролях: Микки Рурк /Mickey Rourke/, Кристофер Уокен /Christopher Walken/, Дебра Фойер /Debra Feuer/, Томас Куинн /Thomas Quinn/, Кевин Конуэй /Kevin Conway/, Стивен Болдуин /Stephen Baldwin/ и др.

Описание:
Боксеру Джонни Уокеру слегка за тридцать. По спортивным меркам он — старик, к тому же Джонни чрезмерно закладывает за воротник. Он одинок, беден и неприкаян. Он выходит на каждый свой бой, как на последний и решительный. Если есть шанс, даже призрачный, подняться и преуспеть, значит, надо этот шанс использовать...



Качество: DVDRip-AVC, исходник [DVD-9]
Формат: MKV
Видео кодек: h.264
Аудио кодек: AC3
Видео: V_MPEG4/ISO/AVC, 720x400 (16:9), 2323 kbps avg, 23,976 fps, 0.336 bit/pixel
Аудио #1: 48 kHz, AC3, 2/0 (L,R) ch, 192 kbps - Есарев
Аудио #2: 48 kHz, AC3, 2/0 (L,R) ch, 192 kbps - Eng

Цитата:

Перевод Дмитрия Есарева доступен благодаря mihey10, рип и работа со звуком - mihaildns.
За исходник, большое спасибо, пользователям сайта е180.
Общее
Уникальный идентификатор : 218963504381964657463537559493172321144 (0xA4BAD6446F1715B79F750C226EA8DB78)
Формат : Matroska
Версия формата : Version 2
Размер файла : 2,18 Гбайт
Продолжительность : 1 ч. 55 м.
Общий поток : 2709 Кбит/сек
Дата кодирования : UTC 2014-05-25 05:54:51
Программа кодирования : mkvmerge v2.9.7 ('Tenderness') built on Jul 1 2009 18:43:35
Библиотека кодирования : libebml v0.7.7 + libmatroska v0.8.1

Видео
Идентификатор : 1
Формат : AVC
Формат/Информация : Advanced Video Codec
Профиль формата : High@L4.1
Параметр CABAC формата : Да
Параметр ReFrames формата : 7 кадров
Идентификатор кодека : V_MPEG4/ISO/AVC
Продолжительность : 1 ч. 55 м.
Битрейт : 2323 Кбит/сек
Ширина : 720 пикселей
Высота : 400 пикселей
Соотношение сторон : 16:9
Режим частоты кадров : Постоянный
Частота кадров : 23,976 кадра/сек
Цветовое пространство : YUV
Субдискретизация насыщенности : 4:2:0
Битовая глубина : 8 бит
Тип развёртки : Прогрессивная
Бит/(Пиксели*Кадры) : 0.336
Размер потока : 1,83 Гбайт (84%)
Заголовок : Rip by mihaildns
Библиотека кодирования : x264 core 125 r2208 d9d2288
Настройки программы : cabac=1 / ref=7 / deblock=1:-3:-3 / analyse=0x3:0x111 / me=umh / subme=9 / psy=1 / psy_rd=1.00:0.00 / mixed_ref=1 / me_range=24 / chroma_me=1 / trellis=2 / 8x8dct=1 / cqm=0 / deadzone=21,11 / fast_pskip=0 / chroma_qp_offset=-2 / threads=3 / lookahead_threads=1 / sliced_threads=0 / nr=0 / decimate=1 / interlaced=0 / bluray_compat=0 / constrained_intra=0 / bframes=9 / b_pyramid=2 / b_adapt=2 / b_bias=0 / direct=3 / weightb=1 / open_gop=0 / weightp=2 / keyint=250 / keyint_min=23 / scenecut=40 / intra_refresh=0 / rc_lookahead=50 / rc=2pass / mbtree=1 / bitrate=2323 / ratetol=1.0 / qcomp=0.60 / qpmin=0 / qpmax=69 / qpstep=4 / cplxblur=20.0 / qblur=0.5 / ip_ratio=1.40 / aq=1:1.10
Язык : English
Default : Да
Forced : Нет

Аудио #1
Идентификатор : 2
Формат : AC-3
Формат/Информация : Audio Coding 3
Расширение режима : CM (complete main)
Параметр Endianness формата : Big
Идентификатор кодека : A_AC3
Продолжительность : 1 ч. 55 м.
Вид битрейта : Постоянный
Битрейт : 192 Кбит/сек
Каналы : 2 канала
Расположение каналов : Front: L R
Частота : 48,0 КГц
Битовая глубина : 16 бит
Метод сжатия : С потерями
Размер потока : 159 Мбайт (7%)
Заголовок : Есарев
Язык : Russian
Default : Да
Forced : Нет

Аудио #2
Идентификатор : 3
Формат : AC-3
Формат/Информация : Audio Coding 3
Расширение режима : CM (complete main)
Параметр Endianness формата : Big
Идентификатор кодека : A_AC3
Продолжительность : 1 ч. 55 м.
Вид битрейта : Постоянный
Битрейт : 192 Кбит/сек
Каналы : 2 канала
Расположение каналов : Front: L R
Частота : 48,0 КГц
Битовая глубина : 16 бит
Метод сжатия : С потерями
Размер потока : 159 Мбайт (7%)
Язык : English
Default : Нет
Forced : Нет

Текст
Идентификатор : 4
Формат : UTF-8
Идентификатор кодека : S_TEXT/UTF8
Идентификатор кодека/Информация : UTF-8 Plain Text
Язык : English
Default : Да
Forced : Нет



Скачать Свой.парень.Homeboy.(Майкл.Серезин.Michael.Seresin).[1988.драма.спорт.DVDRip-AVC].[VO].(Д.Есарев).+.Sub.Eng.+.Original.Eng.torrent без регистрации
Золото ЗОЛОТАЯ РАЗДАЧА! СКАЧАННОЕ НЕ ЗАСЧИТЫВАЕТСЯ! Золото
Дата: Зарегистрирован   [ Тип: внутренний ] Как тут cкачать?
MAGNET ссылка
MAGNET ссылка


Скачать .torrent

12 KB

Статус: проверено DHT
Скачан: торрент - 134 раз, раздача полностью - 2 раз
Размер: 2,18 GB
Оценка:  - (Голосов: 0)
Поблагодарили: 2
Поделиться ссылкой на эту раздачу с друзьями:
В контактеFacebookОдноклассникиTwitterLivejournalМой МирLiveinternet
 

 
Показать сообщения:    


Вы не можете начинать темы
Вы не можете отвечать на сообщения
Вы не можете редактировать свои сообщения
Вы не можете удалять свои сообщения
Вы не можете голосовать в опросах
Вы не можете прикреплять файлы к сообщениям
Вы можете скачивать файлы