Loading...
Error

Скачать Безумцы / Mad Men (сезон 07) (Скотт Хорнбеккер, Кристофер Мэнли, Мэтью Уэйнер) [2014, драма, WEB-DL] [720p] [MVO (Gears Media & IdeaFilm)]+[Eng] торрент без регистрации

 
Статистика раздачи
Размер:  23,02 GB   |    Скачан:  5457 раз
Сидов:  1  [  0 KB/s  ]  
 
Автор Сообщение

МихаНЕзатор

[] 

Информация о фильме
Название: Безумцы
Оригинальное название: Mad Men
Год выпуска: 2014 - 2015
Жанр: драма
Режиссёр: Скотт Хорнбеккер, Кристофер Мэнли, Мэтью Уэйнер

В ролях: Джон Хэмм, Элизабет Мосс, Винсент Картайзер, Дженьюри Джонс, Кристина Хендрикс, Аарон Стэтон, Рич Соммер и другие.

Описание:
США, 60-е годы ХХ века. В центре повествования — работа рекламного Агентства «Стерлинг-Купер», расположенного на престижной Медисон-авеню в центре Нью-Йорка, и жизнь его креативного директора — мастера манипуляций и интриг — Дона Дрейпера. Находясь на вершине карьеры, он противостоит конкурентам, стараясь сберечь своe положение в компании. Служебные и семейные перипетии Дона и его коллег происходят на фоне глобальных событий в жизни американского общества тех лет



Страна: США
Продолжительность: ~47 мин.
Перевод: Профессиональный (многоголосый закадровый, 3 голоса) IdeaFilm (1-7 серии)
Перевод: Профессиональный (многоголосый закадровый, 5 голосов) Gears Media & IdeaFilm (8-14 серии)

Доп. информация: Студийная озвучка

Файл
Качество: WEB-DL 720p
Контейнер: MKV

Видео: H.264, 1280x718 [16:9], 23.976 fps, 3943 kbps, 0.179 bit/pixel
Аудио: русский, AC3, 48 kHz, 6 ch, 448/384 kbps
Аудио 2: английский / оригинал, AC3, 48 kHz, 6 ch, 384 kbps
Субтитры: отсутствуют

АНОНСЫ ПОПУЛЯРНЫХ РАЗДАЧ


Торент обновлён, добавлена 14-я серия!

General
Unique ID : 240208036832089923118025605092450050375 (0xB4B662960710603D810B478AF3E52147)
Format : Matroska
Format version : Version 4 / Version 2
File size : 1.60 GiB
Duration : 47mn 10s
Overall bit rate : 4 863 Kbps
Encoded date : UTC 2014-05-08 23:52:45
Writing application : mkvmerge v6.7.0 ('Back to the Ground') 32bit built on Jan 8 2014 15:03:17
Writing library : libebml v1.3.0 + libmatroska v1.4.1

Video
ID : 1
Format : AVC
Format/Info : Advanced Video Codec
Format profile : High@L3.1
Format settings, CABAC : No
Format settings, ReFrames : 2 frames
Codec ID : V_MPEG4/ISO/AVC
Duration : 47mn 10s
Bit rate : 3 935 Kbps
Width : 1 280 pixels
Height : 718 pixels
Display aspect ratio : 16:9
Frame rate mode : Constant
Frame rate : 23.976 fps
Color space : YUV
Chroma subsampling : 4:2:0
Bit depth : 8 bits
Scan type : Progressive
Bits/(Pixel*Frame) : 0.179
Stream size : 1.30 GiB (81%)
Language : English
Default : Yes
Forced : No
Color primaries : BT.709
Transfer characteristics : BT.709
Matrix coefficients : BT.709

Audio #1
ID : 2
Format : AC-3
Format/Info : Audio Coding 3
Mode extension : CM (complete main)
Format settings, Endianness : Big
Codec ID : A_AC3
Duration : 47mn 10s
Bit rate mode : Constant
Bit rate : 448 Kbps
Channel count : 6 channels
Channel positions : Front: L C R, Side: L R, LFE
Sampling rate : 48.0 KHz
Bit depth : 16 bits
Compression mode : Lossy
Stream size : 151 MiB (9%)
Title : Ideafilm
Language : Russian
Default : Yes
Forced : No

Audio #2
ID : 3
Format : AC-3
Format/Info : Audio Coding 3
Mode extension : CM (complete main)
Format settings, Endianness : Big
Codec ID : A_AC3
Duration : 47mn 10s
Bit rate mode : Constant
Bit rate : 384 Kbps
Channel count : 6 channels
Channel positions : Front: L C R, Side: L R, LFE
Sampling rate : 48.0 KHz
Bit depth : 16 bits
Compression mode : Lossy
Stream size : 130 MiB (8%)
Language : English
Default : No
Forced : No



Скачать Безумцы.Mad.Men.(сезон.07).(Скотт.Хорнбеккер.Кристофер.Мэнли.Мэтью.Уэйнер).[2014.драма.WEB-DL].[720p].[MVO.(Gears.Media.&.IdeaFilm)]+[Eng].torrent без регистрации
Золото ЗОЛОТАЯ РАЗДАЧА! СКАЧАННОЕ НЕ ЗАСЧИТЫВАЕТСЯ! Золото
Дата: Зарегистрирован   [ Тип: внутренний ] Как тут cкачать?
MAGNET ссылка
MAGNET ссылка


Скачать .torrent

232 KB

Статус: проверено DHT
Скачан: торрент - 5457 раз, раздача полностью - 1 раз
Размер: 23,02 GB
Оценка:  5 (Голосов: 1)
Поблагодарили: 1
Поделиться ссылкой на эту раздачу с друзьями:
В контактеFacebookОдноклассникиTwitterLivejournalМой МирLiveinternet
 

 
Показать сообщения:    


Вы не можете начинать темы
Вы не можете отвечать на сообщения
Вы не можете редактировать свои сообщения
Вы не можете удалять свои сообщения
Вы не можете голосовать в опросах
Вы не можете прикреплять файлы к сообщениям
Вы можете скачивать файлы