Loading...
Error

Скачать Сельский дом / Farm House (Джордж Бессудо) [2008, ужасы, триллер, детектив, BDRip] [AVC] [DVO] торрент без регистрации

 
Статистика раздачи
Размер:  1,23 GB   |    Скачан:  130 раз

Полного источника не было: 30 минут

 
Автор Сообщение

Marsianka

[] 

Информация о фильме
Название: Сельский дом
Оригинальное название: Farm House
Год выхода: 2008
Жанр: ужасы, триллер, детектив
Режиссер: Джордж Бессудо
В ролях: Джейми Энн Оллман, Уильям Ли Скотт, Стивен Уэбер, Келли Ху, Ник Хейман, Джек Доннер, Сэм Сарпонг, Дрю Сидора, Адаир Тишлер, Флинн Бек, Брэндон Молале, Генри Хадсон, Райан Кофлин, Стив Ванусек, Кристал Ландрум, Ольга Росникова

О фильме:
Это психологический триллер, действие которого происходит на современном среднем западе. Мы следим за тем, как молодая пара покидает свою повседневную, размеренную жизнь навстречу новому началу. Оказавшись на мели в изолированном городке «Винный Виноградник», в страшной глуши, эта пара влюбленных вынуждена раскрыть секреты своего прошлого, от которого они бегут, и все это время пытаться укрыться от злобных намерений странных жителей городка.
Рейтинг R - Детям до 17 лет обязательно присутствие родителей

Рейтинг R получают фильмы, в содержании которых обязательно содержится материал, предназначенный только для взрослой аудитории. Родителям рекомендуется хорошо подумать, прежде чем посмотреть такой фильм вместе со своими детьми.

Фильм, получивший рейтинг R, скорее всего содержит сексуальные сцены, эпизоды с употреблением наркотиков, нецензурную брань, фрагменты с насилием и т.д.
Огромная благодарность Media-Art-Club за созданный постер к раздаче!
Общее
Уникальный идентификатор : 218758536190184990844838167170882712291 (0xA4935C8E2418E4CCA787BDCA974BB2E3)
Полное имя : H:ФильмСделать русский переводГотовые сделаные релизыSelskij.dom.2008.x264.BDRip-AVC-MediaClub.mkv
Формат : Matroska
Версия формата : Version 2
Размер файла : 1,23 Гбайт
Продолжительность : 1 ч. 32 м.
Общий поток : 1906 Кбит/сек
Название фильма : Selskij dom (2008) BDRip-AVC =MediaClub=-[Викс]-
Дата кодирования : UTC 2014-05-30 17:08:22
Программа кодирования : mkvmerge v5.8.0 ('No Sleep / Pillow') built on Sep 2 2012 15:37:04
Библиотека кодирования : libebml v1.2.3 + libmatroska v1.3.0

Видео
Идентификатор : 1
Формат : AVC
Формат/Информация : Advanced Video Codec
Профиль формата : High@L4.1
Параметр CABAC формата : Да
Параметр ReFrames формата : 8 кадров
Идентификатор кодека : V_MPEG4/ISO/AVC
Продолжительность : 1 ч. 32 м.
Битрейт : 1300 Кбит/сек
Ширина : 1024 пикселя
Высота : 464 пикселя
Соотношение сторон : 2,2:1
Режим частоты кадров : Постоянный
Частота кадров : 25,000 кадров/сек
Цветовое пространство : YUV
Субдискретизация насыщенности : 4:2:0
Битовая глубина : 8 бит
Тип развёртки : Прогрессивная
Бит/(Пиксели*Кадры) : 0.109
Размер потока : 830 Мбайт (66%)
Библиотека кодирования : x264 core 133 r2334 a3ac64b
Настройки программы : cabac=1 / ref=8 / deblock=1:-2:-2 / analyse=0x3:0x133 / me=umh / subme=11 / psy=1 / psy_rd=1.00:0.20 / mixed_ref=1 / me_range=48 / chroma_me=1 / trellis=2 / 8x8dct=1 / cqm=0 / deadzone=21,11 / fast_pskip=0 / chroma_qp_offset=-3 / threads=6 / lookahead_threads=1 / sliced_threads=0 / nr=0 / decimate=0 / interlaced=0 / bluray_compat=0 / constrained_intra=0 / bframes=8 / b_pyramid=2 / b_adapt=2 / b_bias=0 / direct=3 / weightb=1 / open_gop=0 / weightp=2 / keyint=250 / keyint_min=24 / scenecut=40 / intra_refresh=0 / rc_lookahead=40 / rc=2pass / mbtree=0 / bitrate=1300 / ratetol=1.0 / qcomp=0.60 / qpmin=0 / qpmax=69 / qpstep=4 / cplxblur=20.0 / qblur=0.5 / vbv_maxrate=50000 / vbv_bufsize=52500 / nal_hrd=none / ip_ratio=1.40 / pb_ratio=1.30 / aq=1:1.00
Язык : English
Default : Да
Forced : Нет

Аудио #1
Идентификатор : 2
Формат : AC-3
Формат/Информация : Audio Coding 3
Расширение режима : CM (complete main)
Параметр Endianness формата : Big
Идентификатор кодека : A_AC3
Продолжительность : 1 ч. 32 м.
Вид битрейта : Постоянный
Битрейт : 160 Кбит/сек
Каналы : 2 канала
Расположение каналов : Front: L R
Частота : 48,0 КГц
Битовая глубина : 16 бит
Метод сжатия : С потерями
Размер потока : 105 Мбайт (8%)
Язык : Russian
Default : Да
Forced : Нет

Аудио #2
Идентификатор : 3
Формат : AC-3
Формат/Информация : Audio Coding 3
Расширение режима : CM (complete main)
Параметр Endianness формата : Big
Идентификатор кодека : A_AC3
Продолжительность : 1 ч. 32 м.
Вид битрейта : Постоянный
Битрейт : 448 Кбит/сек
Каналы : 6 каналов
Расположение каналов : Front: L C R, Side: L R, LFE
Частота : 48,0 КГц
Битовая глубина : 16 бит
Метод сжатия : С потерями
Размер потока : 295 Мбайт (24%)
Язык : English
Default : Нет
Forced : Нет

Меню
00:00:00.000 : :Chapter 01
00:07:00.000 : :Chapter 02
00:14:00.000 : :Chapter 03
00:21:00.000 : :Chapter 04
00:28:00.000 : :Chapter 05
00:35:00.000 : :Chapter 06
00:42:00.000 : :Chapter 07
00:49:00.000 : :Chapter 08
00:56:00.000 : :Chapter 09
01:03:00.000 : :Chapter 10
01:10:00.000 : :Chapter 11
01:20:00.000 : :Chapter 12
01:31:55.400 : :Chapter 13
x264 [info]: frame I:923 Avg QP:13.74 size: 35138
x264 [info]: frame P:29826 Avg QP:16.48 size: 14974
x264 [info]: frame B:107135 Avg QP:19.09 size: 3885

Страна: США
Студия: Alliance Group Entertainment
Продолжительность: 01:32:05
Перевод: Профессиональный двухголосый

Файл
Кодек: x264
Качество: BDRip (AVC)
Видео: MPEG-4 AVC, 1300 Кбит/с, 1024x464, 25.000 кадр/с
Звук:
Аудио #1: Русский (AC3, 2 ch, 160 Кбит/с) / Профессиональный двухголосый
Аудио #2: Английский (AC3, 6 ch, 448 Кбит/с)

Семпл Релиз от: Рип, работа с аудио - Викс



Скачать Сельский.дом.Farm.House.(Джордж.Бессудо).[2008.ужасы.триллер.детектив.BDRip].[AVC].[DVO].torrent без регистрации
Золото ЗОЛОТАЯ РАЗДАЧА! СКАЧАННОЕ НЕ ЗАСЧИТЫВАЕТСЯ! Золото
Дата: Зарегистрирован   [ Тип: внутренний ] Как тут cкачать?
MAGNET ссылка
MAGNET ссылка


Скачать .torrent

14 KB

Статус: проверено DHT
Скачан: торрент - 130 раз, раздача полностью - 16 раз
Размер: 1,23 GB
Оценка:  - (Голосов: 0)
Поблагодарили: 3
Поделиться ссылкой на эту раздачу с друзьями:
В контактеFacebookОдноклассникиTwitterLivejournalМой МирLiveinternet
 

 
Показать сообщения:    


Вы не можете начинать темы
Вы не можете отвечать на сообщения
Вы не можете редактировать свои сообщения
Вы не можете удалять свои сообщения
Вы не можете голосовать в опросах
Вы не можете прикреплять файлы к сообщениям
Вы можете скачивать файлы